<?xml version="1.0" standalone="no"?>
<!DOCTYPE svg PUBLIC "-//W3C//DTD SVG 1.1//EN" "http://www.w3.org/Graphics/SVG/1.1/DTD/svg11.dtd">
<svg xmlns="http://www.w3.org/2000/svg">
<defs >
<font id="Inter" horiz-adv-x="1838" ><font-face
    font-family="Inter"
    units-per-em="2816"
    panose-1="2 0 5 3 0 0 0 2 0 4"
    ascent="2728"
    descent="-680"
    alphabetic="0" />
<glyph unicode=" " horiz-adv-x="653" />
<glyph unicode="!" horiz-adv-x="914" d="M679 2048L640 614H274L234 2048H679ZM457 -26Q358 -26 287 44T217 214Q216 312 287 382T457 452Q552 452 624 382T697 214Q696 148 663 94T575 7T457 -26Z" />
<glyph unicode="&quot;" horiz-adv-x="1105" d="M444 2048V1270H140V2048H444ZM961 2048V1270H657V2048H961Z" />
<glyph unicode="#" horiz-adv-x="1829" d="M946 0L1282 2048H1602L1266 0H946ZM29 508L82 828H1682L1629 508H29ZM226 0L562 2048H882L546 0H226ZM146 1220L200 1540H1800L1746 1220H146Z" />
<glyph unicode="$" horiz-adv-x="1844" d="M854 -256V2304H1018V-256H854ZM1289 1459Q1277 1580 1186 1647T939 1714Q833 1714 760 1685T649 1603T610 1485Q608 1430 633 1389T704 1319T808 1268T934 1231L1118 1187Q1252 1157 1364 1107T1558 984T1685 812T1732
585Q1731 397 1637 260T1365 47T937 -29Q689 -29 506 47T220 272T112 643H531Q538 540 590 472T731 369T932 334Q1042 334 1123 366T1250 455T1295 586Q1295 655 1255 702T1137 782T947 842L724 898Q465 961 315 1095T166 1456Q165 1642 265 1781T542 1998T942
2076Q1170 2076 1340 1998T1606 1781T1704 1459H1289Z" />
<glyph unicode="%" horiz-adv-x="2420" d="M1287 384V492Q1287 615 1339 718T1492 884T1738 947Q1885 947 1985 885T2137 720T2189 492V384Q2189 261 2137 158T1984 -8T1738 -71Q1591 -71 1491 -9T1339 157T1287 384ZM1578 492V384Q1578 313 1612 250T1738 187Q1829
187 1862 249T1896 384V492Q1896 565 1864 628T1738 691Q1648 691 1613 628T1578 492ZM236 1556V1664Q236 1788 289 1891T442 2057T686 2119Q834 2119 934 2057T1086 1892T1138 1664V1556Q1138 1432 1086 1329T933 1165T686 1103Q540 1103 440 1165T288 1330T236
1556ZM529 1664V1556Q529 1483 563 1421T686 1359Q778 1359 811 1421T845 1556V1664Q845 1737 813 1800T686 1863Q597 1863 563 1799T529 1664ZM368 0L1776 2048H2038L630 0H368Z" />
<glyph unicode="&amp;" horiz-adv-x="1898" d="M798 -30Q586 -30 432 46T196 252T113 544Q113 664 161 757T295 928T495 1085L892 1346Q969 1395 1005 1449T1041 1568Q1041 1629 992 1681T853 1732Q793 1732 749 1706T681 1637T656 1542Q656 1478 692 1412T788
1273T919 1114L1890 0H1446L636 902Q556 993 477 1092T344 1304T291 1549Q291 1698 360 1817T556 2005T850 2075Q1014 2075 1133 2009T1317 1833T1382 1592Q1382 1447 1311 1330T1110 1119L692 818Q607 756 567 692T526 568Q526 495 562 437T664 346T819 312Q927
312 1032 361T1224 502T1363 720T1415 999H1768Q1768 811 1727 661T1613 399T1446 216Q1416 197 1388 180T1330 144Q1216 52 1076 11T798 -30Z" />
<glyph unicode="&apos;" horiz-adv-x="588" d="M444 2048V1270H140V2048H444Z" />
<glyph unicode="(" horiz-adv-x="1152" d="M264 821Q264 1193 363 1506T668 2086H1075Q997 1987 930 1845T813 1532T735 1181T707 821Q707 584 755 343T887 -106T1075 -445H668Q463 -178 364 135T264 821Z" />
<glyph unicode=")" horiz-adv-x="1152" d="M888 821Q888 448 789 135T484 -445H77Q155 -346 222 -203T339 109T417 461T445 821Q445 1058 397 1299T265 1747T77 2086H484Q689 1819 788 1506T888 821Z" />
<glyph unicode="*" horiz-adv-x="1590" d="M661 896L686 1283L362 1066L228 1302L577 1472L228 1642L362 1878L686 1661L661 2048H930L904 1661L1228 1878L1362 1642L1014 1472L1362 1302L1228 1066L904 1283L930 896H661Z" />
<glyph unicode="+" horiz-adv-x="1914" d="M778 111V1527H1136V111H778ZM249 640V998H1665V640H249Z" />
<glyph unicode="," horiz-adv-x="853" d="M633 280L622 170Q609 38 573 -93T497 -332T433 -500H157Q172 -441 198 -336T247 -99T276 168L281 280H633Z" />
<glyph unicode="-" horiz-adv-x="1320" d="M1127 1010V672H193V1010H1127Z" />
<glyph unicode="." horiz-adv-x="838" d="M419 -26Q320 -26 250 44T179 214Q179 312 249 382T419 452Q515 452 587 382T659 214Q659 148 626 94T538 7T419 -26Z" />
<glyph unicode="/" horiz-adv-x="1098" d="M1062 2144L402 -308H35L695 2144H1062Z" />
<glyph unicode="0" horiz-adv-x="1938" d="M969 -45Q711 -44 526 82T241 447T142 1022Q142 1357 241 1593T526 1952T969 2076Q1226 2076 1411 1952T1697 1593T1796 1022Q1796 685 1697 446T1412 81T969 -45ZM969 314Q1145 314 1250 491T1354 1022Q1354 1255 1307
1410T1173 1643T969 1721Q794 1721 689 1546T583 1022Q583 786 630 629T765 393T969 314Z" />
<glyph unicode="1" horiz-adv-x="1378" d="M1057 2048V0H624V1637H612L143 1343V1727L650 2048H1057Z" />
<glyph unicode="2" horiz-adv-x="1774" d="M166 0V312L895 987Q988 1077 1051 1149T1148 1290T1181 1441Q1181 1531 1140 1596T1028 1697T867 1733Q773 1733 703 1695T595 1586T557 1417H146Q146 1618 237 1766T492 1995T870 2076Q1090 2076 1253 1999T1508 1784T1599
1470Q1599 1354 1554 1241T1392 991T1065 661L766 368V354H1626V0H166Z" />
<glyph unicode="3" horiz-adv-x="1857" d="M923 -28Q699 -28 525 49T250 263T146 579H582Q586 504 631 448T753 360T924 329Q1023 329 1099 364T1218 461T1261 604Q1261 686 1216 749T1086 849T885 885H694V1203H885Q983 1203 1058 1237T1176 1331T1218 1473Q1218
1550 1182 1608T1080 1700T927 1733Q839 1733 766 1702T649 1612T602 1476H187Q190 1653 288 1788T552 1999T929 2076Q1141 2076 1300 1999T1547 1792T1635 1499Q1636 1327 1529 1212T1249 1066V1050Q1475 1021 1593 894T1711 575Q1712 400 1611 264T1331 50T923
-28Z" />
<glyph unicode="4" horiz-adv-x="1909" d="M135 360V701L990 2048H1284V1576H1110L571 723V707H1786V360H135ZM1118 0V464L1126 615V2048H1532V0H1118Z" />
<glyph unicode="5" horiz-adv-x="1815" d="M914 -28Q702 -28 537 50T274 265T173 579H593Q600 460 693 386T914 312Q1016 312 1094 357T1217 484T1262 672Q1262 780 1217 862T1091 990T908 1037Q818 1037 734 1000T602 899L217 968L314 2048H1566V1694H671L618
1181H630Q684 1257 793 1307T1037 1357Q1222 1357 1367 1270T1596 1032T1679 683Q1680 476 1584 316T1315 64T914 -28Z" />
<glyph unicode="6" horiz-adv-x="1859" d="M952 -28Q794 -27 648 25T385 194T202 504T134 978Q135 1236 193 1439T361 1785T624 2001T967 2076Q1172 2076 1329 1997T1581 1781T1697 1476H1270Q1245 1583 1165 1644T967 1705Q767 1705 664 1531T558 1058H572Q618
1149 696 1213T875 1312T1088 1347Q1270 1347 1412 1262T1636 1027T1718 686Q1718 478 1622 316T1353 63T952 -28ZM950 312Q1050 312 1129 360T1253 490T1298 674Q1298 776 1254 857T1131 986T953 1034Q878 1034 815 1006T704 928T629 813T602 673Q602 574 647
492T771 361T950 312Z" />
<glyph unicode="7" horiz-adv-x="1675" d="M247 0L1096 1680V1694H107V2048H1544V1689L694 0H247Z" />
<glyph unicode="8" horiz-adv-x="1861" d="M930 -28Q699 -28 520 47T238 254T136 551Q136 679 194 786T354 965T580 1057V1071Q416 1104 314 1230T212 1525Q212 1684 305 1808T560 2004T930 2076Q1137 2076 1299 2004T1555 1808T1649 1525Q1648 1356 1545 1230T1281
1071V1057Q1404 1037 1504 966T1664 787T1725 551Q1724 385 1622 254T1341 48T930 -28ZM930 290Q1033 290 1110 327T1230 431T1274 585Q1274 674 1229 742T1107 850T930 890Q831 890 753 851T631 743T586 585Q586 498 629 432T750 328T930 290ZM930 1205Q1016 1205
1083 1240T1188 1337T1226 1480Q1226 1560 1188 1620T1084 1715T930 1750Q843 1750 776 1716T672 1621T634 1480Q634 1399 672 1337T777 1240T930 1205Z" />
<glyph unicode="9" horiz-adv-x="1859" d="M907 2076Q1065 2076 1211 2023T1473 1854T1656 1547T1725 1077Q1725 816 1667 612T1499 264T1236 47T892 -28Q687 -28 530 51T278 268T162 578H589Q614 466 694 405T892 343Q1092 343 1196 517T1301 996H1287Q1241 906
1163 842T985 742T771 707Q590 707 448 792T224 1026T142 1366Q141 1572 237 1733T505 1985T907 2076ZM910 1736Q809 1736 731 1688T607 1559T562 1378Q562 1277 606 1197T728 1069T906 1021Q981 1021 1045 1049T1156 1126T1231 1241T1258 1379Q1257 1476 1212
1557T1088 1687T910 1736Z" />
<glyph unicode=":" horiz-adv-x="838" d="M419 -26Q320 -26 250 44T179 214Q179 312 249 382T419 452Q515 452 587 382T659 214Q659 148 626 94T538 7T419 -26ZM419 1050Q320 1050 250 1120T179 1290Q179 1388 249 1457T419 1527Q515 1527 587 1458T659 1290Q659
1223 626 1169T538 1082T419 1050Z" />
<glyph unicode=";" horiz-adv-x="853" d="M633 280L622 170Q609 38 573 -93T497 -332T433 -500H157Q172 -441 198 -336T247 -99T276 168L281 280H633ZM455 1050Q356 1050 286 1120T215 1290Q215 1388 285 1457T455 1527Q551 1527 623 1458T695 1290Q695 1223 662
1169T574 1082T455 1050Z" />
<glyph unicode="&lt;" horiz-adv-x="1914" d="M253 643V995L1661 1615V1210L697 823L710 844V794L697 815L1661 428V23L253 643Z" />
<glyph unicode="=" horiz-adv-x="1914" d="M266 974V1329H1647V974H266ZM266 310V665H1647V310H266Z" />
<glyph unicode="&gt;" horiz-adv-x="1914" d="M1661 643L253 23V428L1217 815L1204 794V844L1217 823L253 1210V1615L1661 995V643Z" />
<glyph unicode="?" horiz-adv-x="1584" d="M536 614V648Q537 823 567 927T657 1095T799 1211Q861 1251 910 1294T988 1389T1017 1507Q1017 1576 984 1628T896 1708T773 1736Q708 1736 650 1708T555 1624T515 1486H107Q112 1686 203 1816T444 2011T775 2076Q974
2076 1127 2011T1367 1821T1454 1522Q1454 1405 1416 1315T1308 1155T1145 1029Q1066 982 1016 931T941 813T915 648V614H536ZM734 -26Q634 -26 564 44T494 214Q493 312 563 382T734 452Q829 452 901 382T974 214Q973 148 940 94T852 7T734 -26Z" />
<glyph unicode="@" horiz-adv-x="2902" d="M1511 -590Q1192 -590 943 -504T522 -251T260 156T170 702Q170 1004 260 1250T525 1672T950 1944T1524 2039Q1822 2039 2056 1952T2454 1705T2703 1324T2788 836Q2789 652 2756 498T2653 230T2468 49T2192 -27Q2076 -36
2004 -10T1895 67T1846 188H1834Q1810 128 1740 80T1570 5T1356 -15Q1238 -8 1133 40T946 179T818 404T770 714Q771 888 819 1017T948 1234T1128 1372T1327 1436Q1440 1453 1541 1436T1711 1381T1798 1299H1812V1411H2125V435Q2126 366 2156 328T2237 290Q2306
290 2352 351T2422 538T2446 859Q2446 1047 2397 1189T2259 1432T2053 1596T1800 1688T1519 1717Q1270 1717 1084 1642T774 1430T589 1112T526 714Q527 477 592 295T786 -12T1102 -200T1534 -264Q1649 -264 1759 -248T1958 -208T2101 -162L2200 -452Q2137 -488
2030 -519T1788 -570T1511 -590ZM1465 314Q1587 314 1659 361T1763 500T1793 729Q1792 849 1763 932T1662 1059T1463 1103Q1352 1103 1275 1056T1157 925T1115 726Q1116 620 1149 526T1258 373T1465 314Z" />
<glyph unicode="A" horiz-adv-x="2106" d="M531 0H67L774 2048H1332L2038 0H1574L1061 1580H1045L531 0ZM502 805H1598V467H502V805Z" />
<glyph unicode="B" horiz-adv-x="1861" d="M178 0V2048H998Q1224 2048 1375 1981T1602 1796T1678 1523Q1678 1403 1630 1313T1499 1165T1308 1083V1063Q1425 1058 1527 997T1694 827T1758 566Q1758 403 1678 276T1440 74T1053 0H178ZM611 354H964Q1145 354 1228
423T1311 609Q1311 694 1270 759T1154 861T974 898H611V354ZM611 1191H932Q1021 1191 1090 1222T1200 1312T1241 1451Q1241 1562 1163 1630T940 1698H611V1191Z" />
<glyph unicode="C" horiz-adv-x="2118" d="M1985 1331H1547Q1535 1416 1498 1482T1403 1596T1270 1668T1106 1693Q947 1693 829 1615T646 1387T581 1024Q581 805 646 656T830 431T1103 355Q1190 355 1264 378T1397 445T1493 554T1547 700L1985 698Q1968 557 1901
427T1720 194T1450 32T1096 -28Q822 -28 607 96T267 455T142 1024Q142 1359 268 1594T610 1952T1096 2076Q1274 2076 1426 2026T1697 1881T1889 1647T1985 1331Z" />
<glyph unicode="D" horiz-adv-x="2048" d="M904 0H178V2048H910Q1219 2048 1442 1926T1785 1574T1906 1026Q1906 706 1786 476T1441 123T904 0ZM611 371H886Q1078 371 1209 439T1407 652T1474 1026Q1474 1253 1408 1397T1210 1609T887 1677H611V371Z" />
<glyph unicode="E" horiz-adv-x="1725" d="M178 0V2048H1558V1691H611V1203H1487V846H611V357H1562V0H178Z" />
<glyph unicode="F" horiz-adv-x="1647" d="M178 0V2048H1534V1691H611V1203H1444V846H611V0H178Z" />
<glyph unicode="G" horiz-adv-x="2142" d="M1536 1386Q1515 1459 1477 1515T1385 1611T1261 1672T1107 1693Q950 1693 832 1615T647 1389T581 1026Q581 812 646 662T830 434T1111 355Q1258 355 1362 407T1522 556T1578 783L1666 770H1138V1096H1995V838Q1995 568
1881 375T1567 77T1109 -28Q821 -28 603 99T264 462T142 1022Q142 1271 214 1466T418 1798T723 2005T1100 2076Q1274 2076 1424 2026T1690 1883T1881 1665T1976 1386H1536Z" />
<glyph unicode="H" horiz-adv-x="2101" d="M178 0V2048H611V1203H1490V2048H1922V0H1490V846H611V0H178Z" />
<glyph unicode="I" horiz-adv-x="790" d="M611 2048V0H178V2048H611Z" />
<glyph unicode="J" horiz-adv-x="1605" d="M998 2048H1426V620Q1426 422 1338 276T1092 51T727 -28Q542 -28 392 37T153 237T66 576H497Q499 495 530 438T617 350T749 319Q829 319 884 353T969 455T998 620V2048Z" />
<glyph unicode="K" horiz-adv-x="1942" d="M178 0V2048H611V1145H638L1375 2048H1894L1134 1131L1903 0H1385L824 842L611 582V0H178Z" />
<glyph unicode="L" horiz-adv-x="1598" d="M178 0V2048H611V357H1489V0H178Z" />
<glyph unicode="M" horiz-adv-x="2576" d="M178 2048H712L1276 672H1300L1864 2048H2398V0H1978V1333H1961L1431 10H1145L615 1338H598V0H178V2048Z" />
<glyph unicode="N" horiz-adv-x="2070" d="M1891 2048V0H1517L626 1289H611V0H178V2048H558L1442 760H1460V2048H1891Z" />
<glyph unicode="O" horiz-adv-x="2202" d="M2060 1024Q2060 689 1934 454T1590 96T1101 -28Q828 -28 611 96T268 455T142 1024Q142 1359 268 1594T611 1952T1101 2076Q1372 2076 1589 1953T1933 1594T2060 1024ZM1621 1024Q1621 1241 1557 1390T1375 1616T1101
1693Q944 1693 827 1616T646 1390T581 1024Q581 807 645 658T827 432T1101 355Q1258 355 1375 432T1556 658T1621 1024Z" />
<glyph unicode="P" horiz-adv-x="1824" d="M178 0V2048H986Q1219 2048 1383 1960T1633 1715T1720 1354Q1720 1150 1632 994T1378 751T975 664H460V1011H905Q1030 1011 1111 1054T1233 1175T1274 1354Q1274 1456 1234 1532T1111 1651T903 1694H611V0H178Z" />
<glyph unicode="Q" horiz-adv-x="2204" d="M951 712H1319L1504 474L1686 262L2029 -168H1625L1389 122L1268 294L951 712ZM2060 1024Q2060 689 1934 454T1590 96T1101 -28Q828 -28 611 96T268 455T142 1024Q142 1359 268 1594T611 1952T1101 2076Q1372 2076 1589
1953T1933 1594T2060 1024ZM1621 1024Q1621 1241 1557 1390T1375 1616T1101 1693Q944 1693 827 1616T646 1390T581 1024Q581 807 645 658T827 432T1101 355Q1258 355 1375 432T1556 658T1621 1024Z" />
<glyph unicode="R" horiz-adv-x="1848" d="M178 0V2048H986Q1218 2048 1382 1966T1633 1733T1720 1379Q1720 1175 1632 1029T1378 804T975 726H434V1074H905Q1029 1074 1111 1108T1233 1210T1274 1379Q1274 1481 1234 1551T1111 1657T903 1694H611V0H178ZM1284
932L1793 0H1315L817 932H1284Z" />
<glyph unicode="S" horiz-adv-x="1844" d="M1289 1459Q1277 1580 1186 1647T939 1714Q833 1714 760 1685T649 1603T610 1485Q608 1430 633 1389T704 1319T808 1268T934 1231L1118 1187Q1252 1157 1364 1107T1558 984T1685 812T1732 585Q1731 397 1637 260T1365
47T937 -29Q689 -29 506 47T220 272T112 643H531Q538 540 590 472T731 369T932 334Q1042 334 1123 366T1250 455T1295 586Q1295 655 1255 702T1137 782T947 842L724 898Q465 961 315 1095T166 1456Q165 1642 265 1781T542 1998T942 2076Q1170 2076 1340 1998T1606
1781T1704 1459H1289Z" />
<glyph unicode="T" horiz-adv-x="1882" d="M100 1691V2048H1782V1691H1155V0H727V1691H100Z" />
<glyph unicode="U" horiz-adv-x="2054" d="M1443 2048H1876V718Q1876 494 1770 326T1472 65T1027 -29Q772 -29 581 64T284 326T178 718V2048H611V755Q611 638 662 547T808 404T1027 352Q1153 352 1246 404T1391 547T1443 755V2048Z" />
<glyph unicode="V" horiz-adv-x="2106" d="M548 2048L1043 492H1062L1558 2048H2038L1332 0H774L67 2048H548Z" />
<glyph unicode="W" horiz-adv-x="2917" d="M639 0L53 2048H526L865 625H882L1256 2048H1661L2034 622H2052L2391 2048H2864L2278 0H1856L1466 1339H1450L1061 0H639Z" />
<glyph unicode="X" horiz-adv-x="2012" d="M584 2048L997 1350H1013L1428 2048H1917L1292 1024L1931 0H1433L1013 699H997L577 0H81L722 1024L93 2048H584Z" />
<glyph unicode="Y" horiz-adv-x="2040" d="M58 2048H543L1010 1166H1030L1497 2048H1982L1235 724V0H805V724L58 2048Z" />
<glyph unicode="Z" horiz-adv-x="1878" d="M156 0V257L1178 1691H154V2048H1722V1791L699 357H1724V0H156Z" />
<glyph unicode="[" horiz-adv-x="1152" d="M298 -445V2086H1087V1768H710V-126H1087V-445H298Z" />
<glyph unicode="\" horiz-adv-x="1098" d="M695 -308L35 2144H402L1062 -308H695Z" />
<glyph unicode="]" horiz-adv-x="1152" d="M854 2086V-445H65V-126H442V1768H65V2086H854Z" />
<glyph unicode="^" horiz-adv-x="1373" d="M650 1826H722V1717H650V1826ZM93 1120L514 2003H858L1280 1120H958L677 1757H696L417 1120H93Z" />
<glyph unicode="_" horiz-adv-x="1342" d="M1343 0V-323H-2V0H1343Z" />
<glyph unicode="`" horiz-adv-x="1400" d="M702 1734L397 2189H790L1003 1734H702Z" />
<glyph unicode="a" horiz-adv-x="1634" d="M608 -29Q461 -29 346 22T165 175T98 429Q98 557 145 644T273 784T457 864T675 902Q809 916 891 928T1010 966T1047 1040V1046Q1047 1141 988 1193T819 1245Q704 1245 636 1195T546 1068L152 1100Q182 1240 270 1342T497
1500T821 1556Q949 1556 1066 1526T1275 1433T1420 1272T1473 1036V0H1069V213H1057Q1020 141 958 87T809 2T608 -29ZM730 265Q824 265 896 302T1009 404T1050 549V712Q1030 699 996 689T918 670T832 655T754 643Q679 632 623 608T536 544T505 443Q505 356 568
311T730 265Z" />
<glyph unicode="b" horiz-adv-x="1789" d="M178 0V2048H604V1278H617Q645 1340 698 1404T838 1512T1054 1556Q1222 1556 1364 1469T1591 1206T1676 766Q1676 509 1594 333T1370 66T1053 -25Q929 -25 843 16T701 119T617 246H598V0H178ZM595 768Q595 631 633 529T743
371T918 314Q1022 314 1094 371T1203 531T1241 768Q1241 901 1204 1002T1095 1160T918 1217Q814 1217 743 1162T633 1006T595 768Z" />
<glyph unicode="c" horiz-adv-x="1654" d="M864 -30Q628 -30 459 70T199 350T108 762Q108 998 199 1176T460 1455T862 1556Q1063 1556 1214 1483T1453 1278T1550 968H1148Q1131 1083 1059 1153T869 1224Q770 1224 697 1171T582 1015T541 768Q541 621 581 518T696
361T869 307Q942 307 1000 337T1097 424T1148 563H1550Q1540 387 1455 254T1219 45T864 -30Z" />
<glyph unicode="d" horiz-adv-x="1789" d="M736 -25Q561 -25 420 65T196 332T113 766Q113 1030 198 1205T424 1468T735 1556Q864 1556 950 1513T1090 1405T1172 1278H1185V2048H1610V0H1190V246H1172Q1142 182 1088 120T947 16T736 -25ZM871 314Q974 314 1045
370T1155 529T1194 768Q1194 905 1156 1006T1046 1162T871 1217Q766 1217 694 1160T585 1002T548 768Q548 634 585 532T694 372T871 314Z" />
<glyph unicode="e" horiz-adv-x="1683" d="M870 -30Q633 -30 463 66T200 340T108 761Q108 998 200 1177T459 1456T853 1556Q1005 1556 1136 1508T1366 1362T1520 1119T1575 776V659H278V923H1174Q1174 1015 1134 1086T1024 1197T860 1238Q763 1238 689 1194T572
1075T529 909V658Q529 544 571 461T692 333T877 288Q948 288 1007 308T1108 368T1172 466L1566 440Q1536 298 1444 193T1206 29T870 -30Z" />
<glyph unicode="f" horiz-adv-x="1086" d="M996 1536V1216H48V1536H996ZM265 0V1647Q265 1814 330 1924T510 2089T769 2144Q867 2144 948 2129T1070 2102L994 1782Q969 1790 933 1797T858 1804Q764 1804 727 1761T690 1639V0H265Z" />
<glyph unicode="g" horiz-adv-x="1783" d="M862 -608Q655 -608 508 -552T273 -398T160 -180L554 -127Q572 -173 611 -213T714 -277T872 -302Q1011 -302 1101 -235T1192 -9V272H1174Q1146 208 1090 151T946 58T736 22Q563 22 422 102T197 349T113 771Q113 1032
198 1207T424 1469T735 1556Q864 1556 951 1513T1091 1405T1174 1278H1190V1536H1613V-15Q1613 -211 1517 -343T1252 -541T862 -608ZM871 342Q974 342 1045 393T1155 541T1194 773Q1194 908 1156 1007T1046 1162T871 1217Q766 1217 694 1161T585 1004T548 773Q548
640 585 544T694 395T871 342Z" />
<glyph unicode="h" horiz-adv-x="1758" d="M596 888V0H170V2048H584V1265H602Q654 1401 770 1478T1061 1556Q1221 1556 1340 1487T1526 1288T1592 978V0H1166V902Q1167 1044 1095 1123T892 1202Q805 1202 739 1165T635 1058T596 888Z" />
<glyph unicode="i" horiz-adv-x="766" d="M170 0V1536H596V0H170ZM384 1734Q289 1734 222 1797T154 1950Q154 2038 221 2101T384 2165Q479 2165 546 2102T614 1950Q614 1861 547 1798T384 1734Z" />
<glyph unicode="j" horiz-adv-x="766" d="M170 1536H596V-76Q596 -254 526 -364T326 -525T14 -576Q-8 -576 -28 -576T-72 -574V-241Q-55 -242 -43 -242T-16 -243Q87 -243 128 -200T170 -69V1536ZM382 1734Q288 1734 220 1797T152 1950Q152 2038 220 2101T382 2165Q478
2165 545 2102T613 1950Q613 1861 546 1798T382 1734Z" />
<glyph unicode="k" horiz-adv-x="1638" d="M556 442L557 953H619L1111 1536H1600L939 764H838L556 442ZM170 0V2048H596V0H170ZM1130 0L678 669L962 970L1629 0H1130Z" />
<glyph unicode="l" horiz-adv-x="766" d="M596 2048V0H170V2048H596Z" />
<glyph unicode="m" horiz-adv-x="2568" d="M170 0V1536H576V1265H594Q642 1400 754 1478T1022 1556Q1180 1556 1291 1478T1439 1265H1455Q1502 1397 1625 1476T1918 1556Q2133 1556 2267 1420T2402 1033V0H1977V949Q1977 1077 1909 1141T1739 1205Q1623 1205 1558
1132T1493 938V0H1080V958Q1080 1071 1016 1138T846 1205Q775 1205 719 1170T629 1071T596 922V0H170Z" />
<glyph unicode="n" horiz-adv-x="1751" d="M596 888V0H170V1536H576V1265H594Q645 1399 765 1477T1056 1556Q1216 1556 1335 1486T1520 1287T1586 978V0H1160V902Q1161 1043 1088 1122T887 1202Q801 1202 736 1165T634 1058T596 888Z" />
<glyph unicode="o" horiz-adv-x="1728" d="M864 -30Q631 -30 462 69T200 347T108 762Q108 1000 200 1178T461 1456T864 1556Q1097 1556 1266 1457T1528 1179T1620 762Q1620 526 1528 348T1267 70T864 -30ZM866 300Q972 300 1043 360T1150 526T1187 765Q1187 899
1151 1004T1043 1170T866 1231Q759 1231 687 1170T578 1004T541 765Q541 631 577 526T686 361T866 300Z" />
<glyph unicode="p" horiz-adv-x="1781" d="M170 -576V1536H590V1278H609Q637 1340 690 1404T830 1512T1046 1556Q1214 1556 1356 1469T1583 1206T1668 766Q1668 509 1586 333T1362 66T1045 -25Q921 -25 835 16T693 119T609 246H596V-576H170ZM587 768Q587 631
625 529T735 371T910 314Q1014 314 1086 371T1195 531T1233 768Q1233 901 1196 1002T1087 1160T910 1217Q806 1217 735 1162T625 1006T587 768Z" />
<glyph unicode="q" horiz-adv-x="1781" d="M1185 -576V246H1172Q1142 182 1088 120T947 16T736 -25Q561 -25 420 65T196 332T113 766Q113 1030 198 1205T424 1468T735 1556Q864 1556 950 1513T1090 1405T1172 1278H1190V1536H1610V-576H1185ZM871 314Q974 314
1045 370T1155 529T1194 768Q1194 905 1156 1006T1046 1162T871 1217Q766 1217 694 1160T585 1002T548 768Q548 634 585 532T694 372T871 314Z" />
<glyph unicode="r" horiz-adv-x="1151" d="M170 0V1536H583V1268H599Q641 1411 740 1484T968 1558Q1000 1558 1037 1554T1102 1543V1165Q1072 1174 1019 1181T922 1188Q828 1188 755 1148T639 1035T596 869V0H170Z" />
<glyph unicode="s" horiz-adv-x="1582" d="M1448 1098L1058 1074Q1048 1124 1015 1164T929 1229T801 1254Q702 1254 634 1213T566 1102Q566 1047 610 1009T761 948L1039 892Q1263 846 1373 744T1483 476Q1483 325 1395 211T1153 34T799 -30Q494 -30 314 97T102
445L521 467Q540 374 613 326T800 277Q912 277 980 320T1050 433Q1049 491 1001 528T853 586L587 639Q362 684 253 795T143 1078Q143 1226 223 1333T450 1498T794 1556Q1085 1556 1252 1433T1448 1098Z" />
<glyph unicode="t" horiz-adv-x="1094" d="M987 1536V1216H62V1536H987ZM272 1904H698V472Q698 413 716 381T766 335T842 322Q872 322 902 327T948 336L1015 19Q983 9 925 -4T784 -21Q630 -27 515 20T335 166T272 416V1904Z" />
<glyph unicode="u" horiz-adv-x="1751" d="M1155 654V1536H1581V0H1172V279H1156Q1104 144 984 62T690 -20Q536 -20 419 50T237 249T170 558V1536H596V634Q597 498 669 419T862 340Q939 340 1006 375T1114 481T1155 654Z" />
<glyph unicode="v" horiz-adv-x="1650" d="M1602 1536L1065 0H585L48 1536H498L817 437H833L1151 1536H1602Z" />
<glyph unicode="w" horiz-adv-x="2394" d="M473 0L55 1536H486L724 504H738L986 1536H1409L1661 510H1674L1908 1536H2338L1921 0H1470L1206 966H1187L923 0H473Z" />
<glyph unicode="x" horiz-adv-x="1616" d="M526 1536L808 999L1097 1536H1534L1089 768L1546 0H1111L808 531L510 0H70L526 768L86 1536H526Z" />
<glyph unicode="y" horiz-adv-x="1650" d="M433 -576Q352 -576 282 -564T165 -532L261 -214Q336 -237 396 -239T501 -211T574 -109L599 -44L48 1536H496L814 408H830L1151 1536H1602L1005 -166Q962 -290 889 -382T703 -525T433 -576Z" />
<glyph unicode="z" horiz-adv-x="1610" d="M162 0V254L914 1185V1196H188V1536H1427V1259L721 351V340H1453V0H162Z" />
<glyph unicode="{" horiz-adv-x="1152" d="M87 812V1013Q260 1013 327 1082T394 1305V1526Q394 1711 445 1822T589 1991T809 2067T1087 2086V1768Q969 1768 908 1738T824 1644T802 1483V1191Q802 1115 774 1047T670 926T453 843T87 812ZM1087 -445Q936 -445 809
-426T590 -350T446 -182T394 115V337Q394 491 327 560T87 629V830Q312 830 453 800T670 717T774 596T802 450V158Q802 62 824 -1T907 -95T1087 -126V-445ZM87 629V1013H446V629H87Z" />
<glyph unicode="|" horiz-adv-x="1052" d="M728 2708V-660H324V2708H728Z" />
<glyph unicode="}" horiz-adv-x="1152" d="M1065 830V629Q893 629 826 560T758 337V115Q758 -70 707 -181T563 -350T344 -426T65 -445V-126Q183 -126 244 -96T328 -2T350 158V450Q350 527 378 595T482 716T699 799T1065 830ZM65 2086Q217 2086 343 2067T562 1991T706
1823T758 1526V1305Q758 1151 825 1082T1065 1013V812Q840 812 699 842T482 925T378 1046T350 1191V1483Q350 1580 328 1643T245 1737T65 1768V2086ZM1065 1013V629H706V1013H1065Z" />
<glyph unicode="~" horiz-adv-x="1914" d="M215 553Q209 742 261 873T412 1072T647 1140Q741 1140 827 1101T1022 966Q1080 915 1120 889T1212 862Q1283 862 1329 917T1372 1094H1698Q1705 904 1652 773T1499 574T1266 506Q1167 506 1081 547T889 681Q827 736
790 760T702 785Q631 785 585 732T542 553H215Z" />
<glyph unicode="&#xa0;" horiz-adv-x="653" />
<glyph unicode="&#xa1;" horiz-adv-x="914" d="M679 -518H234L274 916H640L679 -518ZM457 1556Q552 1556 624 1486T697 1316Q696 1218 624 1148T457 1078Q358 1078 287 1148T217 1316Q216 1383 248 1437T336 1523T457 1556Z" />
<glyph unicode="&#xa2;" horiz-adv-x="1654" d="M780 0V2048H944V0H780ZM864 231Q628 231 459 331T199 611T108 1023Q108 1258 199 1437T460 1716T862 1817Q1063 1817 1214 1744T1453 1539T1550 1229H1148Q1131 1343 1059 1414T869 1485Q770 1485 697 1432T582
1276T541 1029Q541 882 581 779T696 622T869 568Q942 568 1000 598T1097 685T1148 824H1550Q1540 648 1455 514T1219 306T864 231Z" />
<glyph unicode="&#xa3;" horiz-adv-x="1891" d="M1686 0H198V357H1686V0ZM1290 815H193V1156H1290V815ZM828 1469L860 618Q865 481 806 390T601 234L329 357Q373 366 395 402T425 490T432 594L402 1469Q394 1664 477 1799T709 2005T1043 2076Q1200 2076 1322 2033T1528
1910T1654 1722T1690 1485L1285 1496Q1287 1581 1255 1632T1169 1706T1050 1729Q987 1729 937 1701T857 1615T828 1469Z" />
<glyph unicode="&#xa4;" horiz-adv-x="2154" d="M1077 -28Q902 -28 750 37T481 221T300 496T234 836Q234 1019 299 1175T481 1449T749 1631T1077 1696Q1250 1696 1402 1631T1670 1449T1852 1176T1918 836Q1918 653 1852 496T1670 221T1402 38T1077 -28ZM1077 233Q1197
233 1303 279T1489 407T1615 599T1662 836Q1661 1007 1582 1143T1371 1359T1077 1439Q912 1439 779 1360T568 1144T490 836Q490 667 568 530T779 313T1077 233ZM1686 1258L1494 1454L1778 1738L1973 1542L1686 1258ZM1778 -34L1494 250L1686 442L1973 162L1778
-34ZM379 -34L188 162L471 442L666 250L379 -34ZM471 1258L188 1542L379 1738L666 1454L471 1258Z" />
<glyph unicode="&#xa5;" horiz-adv-x="1611" d="M484 2048L907 1016L614 794L40 2048H484ZM709 1026L1127 2048H1571L994 794L709 1026ZM1014 1078V0H586V1078H1014ZM1418 1056V809H150V1056H1418ZM1418 660V413H150V660H1418Z" />
<glyph unicode="&#xa6;" horiz-adv-x="971" d="M295 571H676V-384H295V571ZM676 2048V1097H295V2048H676Z" />
<glyph unicode="&#xa7;" horiz-adv-x="1670" d="M1404 1540H1030Q1029 1617 977 1668T820 1720Q767 1720 722 1705T650 1658T622 1578Q622 1530 653 1491T728 1424T812 1379L1195 1202Q1235 1184 1292 1150T1402 1062T1488 929T1511 740Q1504 656 1460 599T1361
509T1260 462L1255 458Q1339 384 1382 292T1426 86Q1426 -72 1348 -183T1136 -354T834 -414Q650 -414 510 -346T290 -155T211 136H587Q587 41 654 -10T839 -55Q915 -53 981 -21T1047 86Q1047 138 1016 175T943 239T862 285L479 458Q438 477 381 510T270 599T184
734T161 924Q168 1008 209 1065T307 1156T414 1204V1207Q338 1281 292 1372T246 1578Q246 1722 319 1834T522 2011T820 2076Q996 2076 1126 2007T1330 1816T1404 1540ZM1162 718Q1166 752 1149 784T1095 846T1000 899L666 1050Q630 1067 596 1057T537 1018T508
946Q500 893 543 846T671 763L1005 614Q1036 600 1070 609T1130 647T1162 718Z" />
<glyph unicode="&#xa8;" horiz-adv-x="1506" d="M448 1746Q362 1746 300 1806T238 1950Q238 2035 300 2094T448 2153Q535 2153 595 2094T656 1950Q656 1867 596 1807T448 1746ZM1060 1746Q974 1746 912 1806T850 1950Q850 2035 912 2094T1060 2153Q1147 2153 1207
2094T1268 1950Q1268 1867 1208 1807T1060 1746Z" />
<glyph unicode="&#xa9;" horiz-adv-x="2576" d="M732 1024Q732 1180 808 1308T1012 1512T1296 1588Q1432 1588 1548 1528T1739 1365T1829 1133H1532Q1517 1208 1450 1255T1296 1303Q1219 1303 1156 1266T1054 1166T1016 1025Q1016 948 1054 885T1155 783T1296
745Q1382 745 1445 792T1524 915H1821Q1806 786 1733 683T1546 520T1296 460Q1140 460 1012 536T808 740T732 1024ZM1288 -32Q1070 -32 879 50T542 277T314 614T232 1024Q233 1243 315 1434T543 1770T879 1998T1288 2080Q1507 2080 1698 1998T2034 1771T2261 1434T2344
1024Q2345 805 2263 614T2036 278T1699 50T1288 -32ZM1288 301Q1439 301 1570 357T1801 512T1956 742T2011 1023Q2011 1174 1955 1305T1799 1536T1569 1691T1288 1747Q1139 1747 1009 1691T779 1536T622 1305T565 1023Q564 874 620 744T776 514T1007 358T1288 301Z"
/>
<glyph unicode="&#xaa;" horiz-adv-x="1372" d="M858 1184V1652Q858 1735 818 1781T693 1828Q601 1828 550 1793T498 1692L253 1710Q253 1849 373 1940T693 2032Q878 2032 991 1937T1105 1652V1220Q1105 1161 1112 1098T1143 970H892Q877 1016 868 1071T858 1184ZM920
1582V1422H715Q593 1422 537 1376T480 1270Q480 1214 519 1182T645 1150Q702 1150 761 1175T860 1237T900 1308L924 1146Q892 1078 810 1015T582 952Q414 952 323 1037T231 1264Q231 1417 351 1499T715 1582H920Z" />
<glyph unicode="&#xab;" horiz-adv-x="1762" d="M954 220H568L164 820V840H570L954 220ZM954 1448L570 828H164V848L568 1448H954ZM1612 220H1226L822 820V840H1228L1612 220ZM1612 1448L1228 828H822V848L1226 1448H1612Z" />
<glyph unicode="&#xac;" horiz-adv-x="1633" d="M1410 1108V872H229V1108H1410ZM1410 1000V516H1127V1000H1410Z" />
<glyph unicode="&#xad;" horiz-adv-x="1320" d="M1127 1010V672H193V1010H1127Z" />
<glyph unicode="&#xae;" horiz-adv-x="1869" d="M645 916V1654H1006Q1076 1654 1134 1625T1227 1542T1262 1409Q1262 1331 1226 1276T1130 1193T997 1164H750V1303H957Q999 1303 1029 1330T1060 1410Q1060 1465 1030 1488T958 1512H837V916H645ZM1116 1257L1284
916H1074L917 1257H1116ZM934 476Q768 476 623 538T368 710T196 965T134 1276Q134 1442 196 1587T368 1842T623 2014T934 2076Q1100 2076 1245 2014T1500 1842T1672 1587T1734 1276Q1734 1110 1672 965T1500 710T1245 538T934 476ZM934 687Q1098 687 1231 766T1444
979T1523 1276Q1523 1439 1444 1572T1231 1785T934 1865Q772 1865 638 1786T425 1573T346 1276Q346 1113 425 980T638 767T934 687Z" />
<glyph unicode="&#xaf;" horiz-adv-x="1590" d="M1282 2048V1817H308V2048H1282Z" />
<glyph unicode="&#xb0;" horiz-adv-x="1294" d="M647 1079Q511 1079 400 1145T222 1323T156 1571Q156 1706 222 1817T399 1995T647 2062Q783 2062 894 1996T1072 1818T1138 1571Q1138 1435 1072 1324T895 1146T647 1079ZM647 1363Q705 1363 752 1391T826 1466T854
1571Q854 1628 827 1675T752 1750T647 1778Q590 1778 543 1750T468 1675T440 1571Q440 1513 468 1466T543 1391T647 1363Z" />
<glyph unicode="&#xb1;" horiz-adv-x="1914" d="M253 77V416H1661V77H253ZM253 909V1238H1661V909H253ZM778 563V1584H1136V563H778Z" />
<glyph unicode="&#xb2;" horiz-adv-x="1194" d="M123 1024V1245L610 1634Q666 1680 707 1717T771 1792T794 1876Q794 1948 735 1987T592 2026Q502 2026 448 1983T393 1857H98Q98 2049 238 2158T596 2268Q745 2268 855 2217T1025 2077T1086 1880Q1086 1792 1050
1717T938 1569T743 1417L565 1285V1274H1100V1024H123Z" />
<glyph unicode="&#xb3;" horiz-adv-x="1246" d="M618 1008Q467 1008 350 1055T163 1185T91 1380H405Q410 1324 470 1293T618 1262Q708 1262 771 1297T834 1397Q834 1457 771 1496T595 1536H454V1763H595Q688 1763 745 1800T802 1897Q802 1955 753 1990T622 2026Q537
2026 477 1992T414 1902H119Q121 2011 188 2093T370 2222T625 2268Q768 2268 875 2221T1041 2094T1101 1916Q1101 1808 1027 1743T847 1664V1654Q992 1640 1073 1566T1154 1376Q1154 1268 1085 1185T894 1055T618 1008Z" />
<glyph unicode="&#xb4;" horiz-adv-x="1400" d="M534 1734L746 2189H1140L835 1734H534Z" />
<glyph unicode="&#xb5;" horiz-adv-x="1877" d="M170 -557V1536H596V654Q597 562 639 491T759 380T939 340Q1041 340 1118 380T1238 491T1281 654V1536H1706V0H1298V218H1286Q1240 119 1147 64T939 9Q824 9 731 64T591 218H579V-557H170Z" />
<glyph unicode="&#xb6;" horiz-adv-x="1717" d="M1351 1720H951V760H833Q608 760 453 843T218 1072T138 1404Q138 1588 217 1733T452 1963T833 2048H1351V1720ZM1199 0V2048H1538V0H1199Z" />
<glyph unicode="&#xb7;" horiz-adv-x="838" d="M419 657Q320 657 250 727T179 897Q179 995 249 1065T419 1135Q515 1135 587 1065T659 897Q659 831 626 777T538 690T419 657Z" />
<glyph unicode="&#xb8;" horiz-adv-x="1054" d="M431 8H627L611 -79Q714 -95 779 -156T846 -322Q847 -471 708 -559T318 -648L314 -458Q440 -458 511 -428T586 -333Q588 -272 539 -240T386 -195L431 8Z" />
<glyph unicode="&#xb9;" horiz-adv-x="904" d="M404 1024V1973H397L102 1788V2050L421 2252H696V1024H404Z" />
<glyph unicode="&#xba;" horiz-adv-x="1365" d="M192 1436V1542Q192 1685 252 1795T422 1969T682 2032Q910 2032 1041 1894T1173 1542V1436Q1173 1294 1114 1185T946 1013T686 950Q457 950 325 1086T192 1436ZM439 1542V1436Q439 1313 501 1233T686 1152Q807 1152
866 1232T926 1436V1542Q926 1662 866 1745T682 1828Q562 1828 501 1745T439 1542Z" />
<glyph unicode="&#xbb;" horiz-adv-x="1772" d="M142 220L526 840H932V820L528 220H142ZM142 1448H528L932 848V828H526L142 1448ZM810 220L1194 840H1600V820L1196 220H810ZM810 1448H1196L1600 848V828H1194L810 1448Z" />
<glyph unicode="&#xbc;" horiz-adv-x="2476" d="M339 0L1747 2048H2008L600 0H339ZM354 1216V2040H346L84 1876V2125L369 2304H629V1216H354ZM1391 174V396L1898 1088H2088V790H1978L1674 409V400H2409V174H1391ZM1985 0V241L1989 342V1088H2250V0H1985Z" />
<glyph unicode="&#xbd;" horiz-adv-x="2579" d="M339 0L1747 2048H2008L600 0H339ZM354 1216V2040H346L84 1876V2125L369 2304H629V1216H354ZM1619 0V200L2061 543Q2132 599 2178 645T2224 751Q2224 815 2171 848T2040 882Q1961 882 1912 845T1862 736H1597Q1597
907 1723 1005T2047 1104Q2247 1104 2366 1003T2486 755Q2486 676 2453 609T2352 478T2176 346L2019 238V228H2497V0H1619Z" />
<glyph unicode="&#xbe;" horiz-adv-x="2718" d="M580 0L1988 2048H2249L841 0H580ZM1633 174V396L2140 1088H2330V790H2220L1916 409V400H2651V174H1633ZM2227 0V241L2231 342V1088H2492V0H2227ZM560 1200Q418 1200 312 1243T145 1362T82 1532H366Q370 1485 422
1457T553 1428Q637 1428 694 1460T752 1546Q752 1598 697 1631T539 1665H408V1873H539Q620 1873 671 1904T723 1988Q723 2038 679 2070T558 2102Q486 2102 433 2073T375 1996H106Q110 2091 171 2164T335 2278T565 2320Q693 2320 790 2278T940 2165T994 2006Q994
1917 932 1857T769 1784V1774Q902 1761 972 1695T1042 1527Q1042 1432 979 1358T807 1242T560 1200Z" />
<glyph unicode="&#xbf;" horiz-adv-x="1584" d="M1048 901V867Q1048 693 1017 589T928 421T785 304Q724 265 675 222T596 126T567 8Q567 -61 600 -112T688 -192T811 -221Q876 -221 934 -193T1029 -108T1069 30H1477Q1473 -170 1382 -301T1141 -496T809 -561Q611
-561 458 -496T217 -306T130 -6Q130 111 168 201T276 361T439 486Q518 534 568 584T643 702T669 867V901H1048ZM850 1541Q950 1541 1021 1471T1090 1301Q1092 1203 1021 1133T850 1063Q755 1063 684 1133T610 1301Q611 1368 644 1422T732 1508T850 1541Z" />
<glyph unicode="&#xc0;" horiz-adv-x="2106" d="M531 0H67L774 2048H1332L2038 0H1574L1061 1580H1045L531 0ZM502 805H1598V467H502V805ZM905 2246L600 2701H993L1206 2246H905Z" />
<glyph unicode="&#xc1;" horiz-adv-x="2106" d="M531 0H67L774 2048H1332L2038 0H1574L1061 1580H1045L531 0ZM502 805H1598V467H502V805ZM900 2246L1112 2701H1506L1201 2246H900Z" />
<glyph unicode="&#xc2;" horiz-adv-x="2106" d="M531 0H67L774 2048H1332L2038 0H1574L1061 1580H1045L531 0ZM502 805H1598V467H502V805ZM1254 2232L1053 2476L852 2232H489V2246L894 2686H1211L1617 2246V2232H1254Z" />
<glyph unicode="&#xc3;" horiz-adv-x="2106" d="M531 0H67L774 2048H1332L2038 0H1574L1061 1580H1045L531 0ZM502 805H1598V467H502V805ZM766 2250L530 2253Q530 2444 624 2546T855 2649Q925 2649 975 2627T1066 2574T1144 2522T1224 2499Q1282 2500 1312 2542T1343
2654L1576 2647Q1574 2458 1480 2356T1250 2252Q1176 2251 1126 2274T1037 2326T963 2379T882 2402Q830 2402 798 2361T766 2250Z" />
<glyph unicode="&#xc4;" horiz-adv-x="2106" d="M531 0H67L774 2048H1332L2038 0H1574L1061 1580H1045L531 0ZM502 805H1598V467H502V805ZM748 2258Q662 2258 600 2318T538 2462Q538 2547 600 2606T748 2665Q835 2665 895 2606T956 2462Q956 2379 896 2319T748
2258ZM1360 2258Q1274 2258 1212 2318T1150 2462Q1150 2547 1212 2606T1360 2665Q1447 2665 1507 2606T1568 2462Q1568 2379 1508 2319T1360 2258Z" />
<glyph unicode="&#xc5;" horiz-adv-x="2106" d="M531 0H67L774 2048H1332L2038 0H1574L1061 1580H1045L531 0ZM502 805H1598V467H502V805ZM1053 2166Q925 2166 835 2254T745 2467Q745 2550 786 2618T898 2727T1053 2768Q1138 2768 1208 2728T1319 2619T1361 2467Q1361
2384 1320 2316T1208 2207T1053 2166ZM1053 2337Q1109 2337 1148 2375T1187 2468Q1187 2522 1148 2560T1053 2598Q997 2597 958 2559T918 2467Q918 2413 957 2375T1053 2337Z" />
<glyph unicode="&#xc6;" horiz-adv-x="2901" d="M67 0L944 2048H2734V1691H1787V1203H2663V846H1787V357H2738V0H1354V1622H1211L543 0H67ZM537 467V805H1601V467H537Z" />
<glyph unicode="&#xc7;" horiz-adv-x="2118" d="M1985 1331H1547Q1535 1416 1498 1482T1403 1596T1270 1668T1106 1693Q947 1693 829 1615T646 1387T581 1024Q581 805 646 656T830 431T1103 355Q1190 355 1264 378T1397 445T1493 554T1547 700L1985 698Q1968 557
1901 427T1720 194T1450 32T1096 -28Q822 -28 607 96T267 455T142 1024Q142 1359 268 1594T610 1952T1096 2076Q1274 2076 1426 2026T1697 1881T1889 1647T1985 1331ZM989 6H1185L1169 -81Q1272 -97 1337 -158T1404 -324Q1405 -473 1266 -561T876 -650L872 -460Q998
-460 1069 -430T1144 -335Q1146 -274 1097 -242T944 -197L989 6Z" />
<glyph unicode="&#xc8;" horiz-adv-x="1725" d="M178 0V2048H1558V1691H611V1203H1487V846H611V357H1562V0H178ZM724 2246L419 2701H812L1025 2246H724Z" />
<glyph unicode="&#xc9;" horiz-adv-x="1725" d="M178 0V2048H1558V1691H611V1203H1487V846H611V357H1562V0H178ZM718 2246L930 2701H1324L1019 2246H718Z" />
<glyph unicode="&#xca;" horiz-adv-x="1725" d="M178 0V2048H1558V1691H611V1203H1487V846H611V357H1562V0H178ZM1072 2232L871 2476L670 2232H307V2246L712 2686H1029L1435 2246V2232H1072Z" />
<glyph unicode="&#xcb;" horiz-adv-x="1725" d="M178 0V2048H1558V1691H611V1203H1487V846H611V357H1562V0H178ZM566 2258Q480 2258 418 2318T356 2462Q356 2547 418 2606T566 2665Q653 2665 713 2606T774 2462Q774 2379 714 2319T566 2258ZM1178 2258Q1092 2258
1030 2318T968 2462Q968 2547 1030 2606T1178 2665Q1265 2665 1325 2606T1386 2462Q1386 2379 1326 2319T1178 2258Z" />
<glyph unicode="&#xcc;" horiz-adv-x="790" d="M611 2048V0H178V2048H611ZM248 2246L-57 2701H336L549 2246H248Z" />
<glyph unicode="&#xcd;" horiz-adv-x="790" d="M611 2048V0H178V2048H611ZM243 2246L455 2701H849L544 2246H243Z" />
<glyph unicode="&#xce;" horiz-adv-x="790" d="M611 2048V0H178V2048H611ZM597 2232L396 2476L195 2232H-168V2246L237 2686H554L960 2246V2232H597Z" />
<glyph unicode="&#xcf;" horiz-adv-x="790" d="M611 2048V0H178V2048H611ZM91 2258Q5 2258 -57 2318T-119 2462Q-119 2547 -57 2606T91 2665Q178 2665 238 2606T299 2462Q299 2379 239 2319T91 2258ZM703 2258Q617 2258 555 2318T493 2462Q493 2547 555 2606T703
2665Q790 2665 850 2606T911 2462Q911 2379 851 2319T703 2258Z" />
<glyph unicode="&#xd0;" horiz-adv-x="2048" d="M904 0H371V371H886Q1078 371 1209 439T1407 652T1474 1026Q1474 1253 1408 1397T1210 1609T887 1677H362V2048H910Q1219 2048 1442 1926T1785 1574T1906 1026Q1906 706 1786 476T1441 123T904 0ZM611 2048V0H178V2048H611ZM-106
954V1206H891V954H-106Z" />
<glyph unicode="&#xd1;" horiz-adv-x="2070" d="M1891 2048V0H1517L626 1289H611V0H178V2048H558L1442 760H1460V2048H1891ZM750 2237L513 2240Q513 2431 607 2533T838 2636Q908 2636 958 2614T1049 2561T1127 2509T1207 2486Q1265 2487 1295 2529T1326 2641L1559
2634Q1557 2445 1463 2343T1234 2239Q1159 2239 1109 2261T1020 2313T946 2366T865 2389Q813 2389 782 2348T750 2237Z" />
<glyph unicode="&#xd2;" horiz-adv-x="2202" d="M2060 1024Q2060 689 1934 454T1590 96T1101 -28Q828 -28 611 96T268 455T142 1024Q142 1359 268 1594T611 1952T1101 2076Q1372 2076 1589 1953T1933 1594T2060 1024ZM1621 1024Q1621 1241 1557 1390T1375 1616T1101
1693Q944 1693 827 1616T646 1390T581 1024Q581 807 645 658T827 432T1101 355Q1258 355 1375 432T1556 658T1621 1024ZM953 2246L648 2701H1041L1254 2246H953Z" />
<glyph unicode="&#xd3;" horiz-adv-x="2202" d="M2060 1024Q2060 689 1934 454T1590 96T1101 -28Q828 -28 611 96T268 455T142 1024Q142 1359 268 1594T611 1952T1101 2076Q1372 2076 1589 1953T1933 1594T2060 1024ZM1621 1024Q1621 1241 1557 1390T1375 1616T1101
1693Q944 1693 827 1616T646 1390T581 1024Q581 807 645 658T827 432T1101 355Q1258 355 1375 432T1556 658T1621 1024ZM948 2246L1160 2701H1554L1249 2246H948Z" />
<glyph unicode="&#xd4;" horiz-adv-x="2202" d="M2060 1024Q2060 689 1934 454T1590 96T1101 -28Q828 -28 611 96T268 455T142 1024Q142 1359 268 1594T611 1952T1101 2076Q1372 2076 1589 1953T1933 1594T2060 1024ZM1621 1024Q1621 1241 1557 1390T1375 1616T1101
1693Q944 1693 827 1616T646 1390T581 1024Q581 807 645 658T827 432T1101 355Q1258 355 1375 432T1556 658T1621 1024ZM1302 2232L1101 2476L900 2232H537V2246L942 2686H1259L1665 2246V2232H1302Z" />
<glyph unicode="&#xd5;" horiz-adv-x="2202" d="M2060 1024Q2060 689 1934 454T1590 96T1101 -28Q828 -28 611 96T268 455T142 1024Q142 1359 268 1594T611 1952T1101 2076Q1372 2076 1589 1953T1933 1594T2060 1024ZM1621 1024Q1621 1241 1557 1390T1375 1616T1101
1693Q944 1693 827 1616T646 1390T581 1024Q581 807 645 658T827 432T1101 355Q1258 355 1375 432T1556 658T1621 1024ZM814 2250L578 2253Q578 2444 672 2546T903 2649Q973 2649 1023 2627T1114 2574T1192 2522T1272 2499Q1330 2500 1360 2542T1391 2654L1624
2647Q1622 2458 1528 2356T1298 2252Q1224 2251 1174 2274T1085 2326T1011 2379T930 2402Q878 2402 846 2361T814 2250Z" />
<glyph unicode="&#xd6;" horiz-adv-x="2202" d="M2060 1024Q2060 689 1934 454T1590 96T1101 -28Q828 -28 611 96T268 455T142 1024Q142 1359 268 1594T611 1952T1101 2076Q1372 2076 1589 1953T1933 1594T2060 1024ZM1621 1024Q1621 1241 1557 1390T1375 1616T1101
1693Q944 1693 827 1616T646 1390T581 1024Q581 807 645 658T827 432T1101 355Q1258 355 1375 432T1556 658T1621 1024ZM796 2258Q710 2258 648 2318T586 2462Q586 2547 648 2606T796 2665Q883 2665 943 2606T1004 2462Q1004 2379 944 2319T796 2258ZM1408 2258Q1322
2258 1260 2318T1198 2462Q1198 2547 1260 2606T1408 2665Q1495 2665 1555 2606T1616 2462Q1616 2379 1556 2319T1408 2258Z" />
<glyph unicode="&#xd7;" horiz-adv-x="1914" d="M1423 90L228 1283L490 1548L1686 353L1423 90ZM490 90L228 353L1423 1548L1686 1283L490 90Z" />
<glyph unicode="&#xd8;" horiz-adv-x="2202" d="M463 -98L268 34L1735 2142L1930 2010L463 -98ZM2060 1024Q2060 689 1934 454T1590 96T1101 -28Q828 -28 611 96T268 455T142 1024Q142 1359 268 1594T611 1952T1101 2076Q1372 2076 1589 1953T1933 1594T2060 1024ZM1621
1024Q1621 1241 1557 1390T1375 1616T1101 1693Q944 1693 827 1616T646 1390T581 1024Q581 807 645 658T827 432T1101 355Q1258 355 1375 432T1556 658T1621 1024Z" />
<glyph unicode="&#xd9;" horiz-adv-x="2054" d="M1443 2048H1876V718Q1876 494 1770 326T1472 65T1027 -29Q772 -29 581 64T284 326T178 718V2048H611V755Q611 638 662 547T808 404T1027 352Q1153 352 1246 404T1391 547T1443 755V2048ZM880 2246L575 2701H968L1181
2246H880Z" />
<glyph unicode="&#xda;" horiz-adv-x="2054" d="M1443 2048H1876V718Q1876 494 1770 326T1472 65T1027 -29Q772 -29 581 64T284 326T178 718V2048H611V755Q611 638 662 547T808 404T1027 352Q1153 352 1246 404T1391 547T1443 755V2048ZM874 2246L1086 2701H1480L1175
2246H874Z" />
<glyph unicode="&#xdb;" horiz-adv-x="2054" d="M1443 2048H1876V718Q1876 494 1770 326T1472 65T1027 -29Q772 -29 581 64T284 326T178 718V2048H611V755Q611 638 662 547T808 404T1027 352Q1153 352 1246 404T1391 547T1443 755V2048ZM1228 2232L1027 2476L826
2232H463V2246L868 2686H1185L1591 2246V2232H1228Z" />
<glyph unicode="&#xdc;" horiz-adv-x="2054" d="M1443 2048H1876V718Q1876 494 1770 326T1472 65T1027 -29Q772 -29 581 64T284 326T178 718V2048H611V755Q611 638 662 547T808 404T1027 352Q1153 352 1246 404T1391 547T1443 755V2048ZM722 2258Q636 2258 574
2318T512 2462Q512 2547 574 2606T722 2665Q809 2665 869 2606T930 2462Q930 2379 870 2319T722 2258ZM1334 2258Q1248 2258 1186 2318T1124 2462Q1124 2547 1186 2606T1334 2665Q1421 2665 1481 2606T1542 2462Q1542 2379 1482 2319T1334 2258Z" />
<glyph unicode="&#xdd;" horiz-adv-x="2040" d="M58 2048H543L1010 1166H1030L1497 2048H1982L1235 724V0H805V724L58 2048ZM867 2246L1079 2701H1473L1168 2246H867Z" />
<glyph unicode="&#xde;" horiz-adv-x="1889" d="M174 2048H607V0H174V2048ZM374 1672H907Q1154 1672 1325 1591T1584 1368T1672 1046Q1672 866 1584 725T1325 503T907 422H374V754H907Q1030 754 1107 793T1221 897T1258 1042Q1258 1122 1222 1189T1108 1296T907
1337H374V1672Z" />
<glyph unicode="&#xdf;" horiz-adv-x="1870" d="M178 0V1507Q178 1684 265 1811T511 2007T883 2076Q1083 2076 1248 2013T1514 1827T1614 1522Q1614 1363 1535 1251T1318 1098V1076Q1518 1062 1636 921T1753 564Q1752 385 1669 259T1437 67T1094 0H825V347H1026Q1117
347 1183 379T1286 469T1322 605Q1322 725 1233 797T991 870H833V1202H939Q1012 1202 1065 1237T1148 1331T1178 1459Q1180 1572 1105 1645T897 1719Q766 1719 685 1645T604 1445V0H178Z" />
<glyph unicode="&#xe0;" horiz-adv-x="1634" d="M608 -29Q461 -29 346 22T165 175T98 429Q98 557 145 644T273 784T457 864T675 902Q809 916 891 928T1010 966T1047 1040V1046Q1047 1141 988 1193T819 1245Q704 1245 636 1195T546 1068L152 1100Q182 1240 270
1342T497 1500T821 1556Q949 1556 1066 1526T1275 1433T1420 1272T1473 1036V0H1069V213H1057Q1020 141 958 87T809 2T608 -29ZM730 265Q824 265 896 302T1009 404T1050 549V712Q1030 699 996 689T918 670T832 655T754 643Q679 632 623 608T536 544T505 443Q505
356 568 311T730 265ZM945 1734L640 2189H1033L1246 1734H945Z" />
<glyph unicode="&#xe1;" horiz-adv-x="1634" d="M608 -29Q461 -29 346 22T165 175T98 429Q98 557 145 644T273 784T457 864T675 902Q809 916 891 928T1010 966T1047 1040V1046Q1047 1141 988 1193T819 1245Q704 1245 636 1195T546 1068L152 1100Q182 1240 270
1342T497 1500T821 1556Q949 1556 1066 1526T1275 1433T1420 1272T1473 1036V0H1069V213H1057Q1020 141 958 87T809 2T608 -29ZM730 265Q824 265 896 302T1009 404T1050 549V712Q1030 699 996 689T918 670T832 655T754 643Q679 632 623 608T536 544T505 443Q505
356 568 311T730 265ZM684 1734L896 2189H1290L985 1734H684Z" />
<glyph unicode="&#xe2;" horiz-adv-x="1634" d="M608 -29Q461 -29 346 22T165 175T98 429Q98 557 145 644T273 784T457 864T675 902Q809 916 891 928T1010 966T1047 1040V1046Q1047 1141 988 1193T819 1245Q704 1245 636 1195T546 1068L152 1100Q182 1240 270
1342T497 1500T821 1556Q949 1556 1066 1526T1275 1433T1420 1272T1473 1036V0H1069V213H1057Q1020 141 958 87T809 2T608 -29ZM730 265Q824 265 896 302T1009 404T1050 549V712Q1030 699 996 689T918 670T832 655T754 643Q679 632 623 608T536 544T505 443Q505
356 568 311T730 265ZM1038 1720L837 1964L636 1720H273V1734L678 2174H995L1401 1734V1720H1038Z" />
<glyph unicode="&#xe3;" horiz-adv-x="1634" d="M608 -29Q461 -29 346 22T165 175T98 429Q98 557 145 644T273 784T457 864T675 902Q809 916 891 928T1010 966T1047 1040V1046Q1047 1141 988 1193T819 1245Q704 1245 636 1195T546 1068L152 1100Q182 1240 270
1342T497 1500T821 1556Q949 1556 1066 1526T1275 1433T1420 1272T1473 1036V0H1069V213H1057Q1020 141 958 87T809 2T608 -29ZM730 265Q824 265 896 302T1009 404T1050 549V712Q1030 699 996 689T918 670T832 655T754 643Q679 632 623 608T536 544T505 443Q505
356 568 311T730 265ZM551 1725L314 1728Q314 1919 408 2021T639 2124Q709 2124 759 2102T850 2049T928 1997T1008 1974Q1066 1975 1096 2017T1127 2129L1360 2122Q1358 1933 1264 1831T1035 1727Q960 1727 910 1749T821 1801T747 1854T666 1877Q614 1877 583 1836T551
1725Z" />
<glyph unicode="&#xe4;" horiz-adv-x="1634" d="M608 -29Q461 -29 346 22T165 175T98 429Q98 557 145 644T273 784T457 864T675 902Q809 916 891 928T1010 966T1047 1040V1046Q1047 1141 988 1193T819 1245Q704 1245 636 1195T546 1068L152 1100Q182 1240 270
1342T497 1500T821 1556Q949 1556 1066 1526T1275 1433T1420 1272T1473 1036V0H1069V213H1057Q1020 141 958 87T809 2T608 -29ZM730 265Q824 265 896 302T1009 404T1050 549V712Q1030 699 996 689T918 670T832 655T754 643Q679 632 623 608T536 544T505 443Q505
356 568 311T730 265ZM532 1746Q446 1746 384 1806T322 1950Q322 2035 384 2094T532 2153Q619 2153 679 2094T740 1950Q740 1867 680 1807T532 1746ZM1144 1746Q1058 1746 996 1806T934 1950Q934 2035 996 2094T1144 2153Q1231 2153 1291 2094T1352 1950Q1352 1867
1292 1807T1144 1746Z" />
<glyph unicode="&#xe5;" horiz-adv-x="1634" d="M608 -29Q461 -29 346 22T165 175T98 429Q98 557 145 644T273 784T457 864T675 902Q809 916 891 928T1010 966T1047 1040V1046Q1047 1141 988 1193T819 1245Q704 1245 636 1195T546 1068L152 1100Q182 1240 270
1342T497 1500T821 1556Q949 1556 1066 1526T1275 1433T1420 1272T1473 1036V0H1069V213H1057Q1020 141 958 87T809 2T608 -29ZM730 265Q824 265 896 302T1009 404T1050 549V712Q1030 699 996 689T918 670T832 655T754 643Q679 632 623 608T536 544T505 443Q505
356 568 311T730 265ZM837 1701Q742 1701 665 1745T541 1863T494 2029Q494 2120 540 2195T664 2316T837 2362Q932 2362 1009 2317T1132 2196T1178 2029Q1178 1938 1132 1864T1009 1745T837 1701ZM837 1879Q903 1880 948 1924T993 2029Q993 2089 948 2135T837 2182Q770
2181 726 2135T681 2029Q681 1969 725 1924T837 1879Z" />
<glyph unicode="&#xe6;" horiz-adv-x="2573" d="M1786 -30Q1571 -30 1411 63T1192 329L1178 1232Q1273 1399 1414 1477T1742 1556Q1895 1556 2026 1508T2256 1362T2409 1119T2465 776V659H1199V923H2064Q2063 1015 2023 1086T1913 1197T1750 1238Q1652 1238 1578
1194T1462 1074T1418 909V658Q1418 544 1461 461T1582 333T1766 288Q1838 288 1896 308T1997 368T2062 466L2455 440Q2425 298 2333 193T2101 29T1786 -30ZM730 265Q824 265 896 302T1009 404T1050 549V712Q1030 699 996 689T918 670T832 655T754 643Q679 632 623
608T536 544T505 443Q505 356 568 311T730 265ZM632 -29Q473 -29 353 22T165 176T98 429Q98 557 145 643T273 783T458 864T675 902Q809 916 891 929T1010 966T1047 1040V1046Q1047 1141 988 1193T819 1245Q705 1245 636 1195T546 1068L152 1100Q182 1240 269 1342T498
1500T828 1556Q899 1556 969 1543T1102 1501T1215 1422T1294 1299L1242 251H1215Q1174 165 1087 102T881 5T632 -29Z" />
<glyph unicode="&#xe7;" horiz-adv-x="1654" d="M864 -30Q628 -30 459 70T199 350T108 762Q108 998 199 1176T460 1455T862 1556Q1063 1556 1214 1483T1453 1278T1550 968H1148Q1131 1083 1059 1153T869 1224Q770 1224 697 1171T582 1015T541 768Q541 621 581
518T696 361T869 307Q942 307 1000 337T1097 424T1148 563H1550Q1540 387 1455 254T1219 45T864 -30ZM764 8H960L944 -79Q1047 -95 1112 -156T1179 -322Q1180 -471 1041 -559T651 -648L647 -458Q773 -458 844 -428T919 -333Q921 -272 872 -240T719 -195L764 8Z"
/>
<glyph unicode="&#xe8;" horiz-adv-x="1683" d="M870 -30Q633 -30 463 66T200 340T108 761Q108 998 200 1177T459 1456T853 1556Q1005 1556 1136 1508T1366 1362T1520 1119T1575 776V659H278V923H1174Q1174 1015 1134 1086T1024 1197T860 1238Q763 1238 689 1194T572
1075T529 909V658Q529 544 571 461T692 333T877 288Q948 288 1007 308T1108 368T1172 466L1566 440Q1536 298 1444 193T1206 29T870 -30ZM952 1734L647 2189H1040L1253 1734H952Z" />
<glyph unicode="&#xe9;" horiz-adv-x="1683" d="M870 -30Q633 -30 463 66T200 340T108 761Q108 998 200 1177T459 1456T853 1556Q1005 1556 1136 1508T1366 1362T1520 1119T1575 776V659H278V923H1174Q1174 1015 1134 1086T1024 1197T860 1238Q763 1238 689 1194T572
1075T529 909V658Q529 544 571 461T692 333T877 288Q948 288 1007 308T1108 368T1172 466L1566 440Q1536 298 1444 193T1206 29T870 -30ZM690 1734L902 2189H1296L991 1734H690Z" />
<glyph unicode="&#xea;" horiz-adv-x="1683" d="M870 -30Q633 -30 463 66T200 340T108 761Q108 998 200 1177T459 1456T853 1556Q1005 1556 1136 1508T1366 1362T1520 1119T1575 776V659H278V923H1174Q1174 1015 1134 1086T1024 1197T860 1238Q763 1238 689 1194T572
1075T529 909V658Q529 544 571 461T692 333T877 288Q948 288 1007 308T1108 368T1172 466L1566 440Q1536 298 1444 193T1206 29T870 -30ZM1044 1720L843 1964L642 1720H279V1734L684 2174H1001L1407 1734V1720H1044Z" />
<glyph unicode="&#xeb;" horiz-adv-x="1683" d="M870 -30Q633 -30 463 66T200 340T108 761Q108 998 200 1177T459 1456T853 1556Q1005 1556 1136 1508T1366 1362T1520 1119T1575 776V659H278V923H1174Q1174 1015 1134 1086T1024 1197T860 1238Q763 1238 689 1194T572
1075T529 909V658Q529 544 571 461T692 333T877 288Q948 288 1007 308T1108 368T1172 466L1566 440Q1536 298 1444 193T1206 29T870 -30ZM538 1746Q452 1746 390 1806T328 1950Q328 2035 390 2094T538 2153Q625 2153 685 2094T746 1950Q746 1867 686 1807T538 1746ZM1150
1746Q1064 1746 1002 1806T940 1950Q940 2035 1002 2094T1150 2153Q1237 2153 1297 2094T1358 1950Q1358 1867 1298 1807T1150 1746Z" />
<glyph unicode="&#xec;" horiz-adv-x="766" d="M170 0V1536H596V0H170ZM236 1734L-69 2189H324L537 1734H236Z" />
<glyph unicode="&#xed;" horiz-adv-x="766" d="M170 0V1536H596V0H170ZM231 1734L443 2189H837L532 1734H231Z" />
<glyph unicode="&#xee;" horiz-adv-x="766" d="M170 0V1536H596V0H170ZM585 1720L384 1964L183 1720H-180V1734L225 2174H542L948 1734V1720H585Z" />
<glyph unicode="&#xef;" horiz-adv-x="766" d="M170 0V1536H596V0H170ZM79 1746Q-7 1746 -69 1806T-131 1950Q-131 2035 -69 2094T79 2153Q166 2153 226 2094T287 1950Q287 1867 227 1807T79 1746ZM691 1746Q605 1746 543 1806T481 1950Q481 2035 543 2094T691
2153Q778 2153 838 2094T899 1950Q899 1867 839 1807T691 1746Z" />
<glyph unicode="&#xf0;" horiz-adv-x="1688" d="M1309 1929L371 1451L344 1645L1282 2122L1309 1929ZM838 -32Q618 -32 454 61T199 319T108 704Q108 908 186 1070T406 1327T732 1422Q825 1422 900 1397T1033 1330T1130 1240H1152Q1087 1382 967 1513T688 1752T350
1934L392 2160Q621 2105 833 1987T1214 1692T1481 1289T1580 788Q1580 538 1490 354T1234 69T838 -32ZM848 294Q955 294 1030 348T1146 498T1186 723Q1186 841 1150 939T1039 1096T848 1155Q737 1155 663 1100T551 949T514 729Q514 604 552 506T664 351T848 294Z"
/>
<glyph unicode="&#xf1;" horiz-adv-x="1751" d="M596 888V0H170V1536H576V1265H594Q645 1399 765 1477T1056 1556Q1216 1556 1335 1486T1520 1287T1586 978V0H1160V902Q1161 1043 1088 1122T887 1202Q801 1202 736 1165T634 1058T596 888ZM591 1725L354 1728Q354
1919 448 2021T679 2124Q749 2124 799 2102T890 2049T968 1997T1048 1974Q1106 1975 1136 2017T1167 2129L1400 2122Q1398 1933 1304 1831T1075 1727Q1000 1727 950 1749T861 1801T787 1854T706 1877Q654 1877 623 1836T591 1725Z" />
<glyph unicode="&#xf2;" horiz-adv-x="1728" d="M864 -30Q631 -30 462 69T200 347T108 762Q108 1000 200 1178T461 1456T864 1556Q1097 1556 1266 1457T1528 1179T1620 762Q1620 526 1528 348T1267 70T864 -30ZM866 300Q972 300 1043 360T1150 526T1187 765Q1187
899 1151 1004T1043 1170T866 1231Q759 1231 687 1170T578 1004T541 765Q541 631 577 526T686 361T866 300ZM716 1734L411 2189H804L1017 1734H716Z" />
<glyph unicode="&#xf3;" horiz-adv-x="1728" d="M864 -30Q631 -30 462 69T200 347T108 762Q108 1000 200 1178T461 1456T864 1556Q1097 1556 1266 1457T1528 1179T1620 762Q1620 526 1528 348T1267 70T864 -30ZM866 300Q972 300 1043 360T1150 526T1187 765Q1187
899 1151 1004T1043 1170T866 1231Q759 1231 687 1170T578 1004T541 765Q541 631 577 526T686 361T866 300ZM711 1734L923 2189H1317L1012 1734H711Z" />
<glyph unicode="&#xf4;" horiz-adv-x="1728" d="M864 -30Q631 -30 462 69T200 347T108 762Q108 1000 200 1178T461 1456T864 1556Q1097 1556 1266 1457T1528 1179T1620 762Q1620 526 1528 348T1267 70T864 -30ZM866 300Q972 300 1043 360T1150 526T1187 765Q1187
899 1151 1004T1043 1170T866 1231Q759 1231 687 1170T578 1004T541 765Q541 631 577 526T686 361T866 300ZM1065 1720L864 1964L663 1720H300V1734L705 2174H1022L1428 1734V1720H1065Z" />
<glyph unicode="&#xf5;" horiz-adv-x="1728" d="M864 -30Q631 -30 462 69T200 347T108 762Q108 1000 200 1178T461 1456T864 1556Q1097 1556 1266 1457T1528 1179T1620 762Q1620 526 1528 348T1267 70T864 -30ZM866 300Q972 300 1043 360T1150 526T1187 765Q1187
899 1151 1004T1043 1170T866 1231Q759 1231 687 1170T578 1004T541 765Q541 631 577 526T686 361T866 300ZM578 1725L341 1728Q341 1919 435 2021T666 2124Q736 2124 786 2102T877 2049T955 1997T1035 1974Q1093 1975 1123 2017T1154 2129L1387 2122Q1385 1933
1291 1831T1062 1727Q987 1727 937 1749T848 1801T774 1854T693 1877Q641 1877 610 1836T578 1725Z" />
<glyph unicode="&#xf6;" horiz-adv-x="1728" d="M864 -30Q631 -30 462 69T200 347T108 762Q108 1000 200 1178T461 1456T864 1556Q1097 1556 1266 1457T1528 1179T1620 762Q1620 526 1528 348T1267 70T864 -30ZM866 300Q972 300 1043 360T1150 526T1187 765Q1187
899 1151 1004T1043 1170T866 1231Q759 1231 687 1170T578 1004T541 765Q541 631 577 526T686 361T866 300ZM559 1746Q473 1746 411 1806T349 1950Q349 2035 411 2094T559 2153Q646 2153 706 2094T767 1950Q767 1867 707 1807T559 1746ZM1171 1746Q1085 1746 1023
1806T961 1950Q961 2035 1023 2094T1171 2153Q1258 2153 1318 2094T1379 1950Q1379 1867 1319 1807T1171 1746Z" />
<glyph unicode="&#xf7;" horiz-adv-x="1914" d="M1657 989V650H257V989H1657ZM957 22Q856 22 785 93T714 265Q714 363 785 433T957 503Q1055 503 1125 433T1195 265Q1195 164 1125 93T957 22ZM957 1135Q890 1135 835 1168T747 1256T714 1378Q714 1477 785 1546T957
1616Q1056 1616 1125 1547T1195 1378Q1195 1277 1126 1206T957 1135Z" />
<glyph unicode="&#xf8;" horiz-adv-x="1728" d="M409 -98L214 34L1317 1622L1514 1490L409 -98ZM864 -32Q631 -32 462 67T200 345T108 760Q108 998 200 1176T461 1454T864 1554Q1097 1554 1266 1455T1528 1177T1620 760Q1620 523 1528 345T1267 68T864 -32ZM866
298Q972 298 1043 358T1150 524T1187 762Q1187 897 1151 1002T1043 1168T866 1229Q759 1229 687 1168T578 1002T541 762Q541 629 577 524T686 359T866 298Z" />
<glyph unicode="&#xf9;" horiz-adv-x="1751" d="M1155 654V1536H1581V0H1172V279H1156Q1104 144 984 62T690 -20Q536 -20 419 50T237 249T170 558V1536H596V634Q597 498 669 419T862 340Q939 340 1006 375T1114 481T1155 654ZM730 1734L425 2189H818L1031 1734H730Z" />
<glyph unicode="&#xfa;" horiz-adv-x="1751" d="M1155 654V1536H1581V0H1172V279H1156Q1104 144 984 62T690 -20Q536 -20 419 50T237 249T170 558V1536H596V634Q597 498 669 419T862 340Q939 340 1006 375T1114 481T1155 654ZM724 1734L936 2189H1330L1025 1734H724Z" />
<glyph unicode="&#xfb;" horiz-adv-x="1751" d="M1155 654V1536H1581V0H1172V279H1156Q1104 144 984 62T690 -20Q536 -20 419 50T237 249T170 558V1536H596V634Q597 498 669 419T862 340Q939 340 1006 375T1114 481T1155 654ZM1079 1720L878 1964L677 1720H314V1734L719
2174H1036L1442 1734V1720H1079Z" />
<glyph unicode="&#xfc;" horiz-adv-x="1751" d="M1155 654V1536H1581V0H1172V279H1156Q1104 144 984 62T690 -20Q536 -20 419 50T237 249T170 558V1536H596V634Q597 498 669 419T862 340Q939 340 1006 375T1114 481T1155 654ZM573 1746Q487 1746 425 1806T363
1950Q363 2035 425 2094T573 2153Q660 2153 720 2094T781 1950Q781 1867 721 1807T573 1746ZM1185 1746Q1099 1746 1037 1806T975 1950Q975 2035 1037 2094T1185 2153Q1272 2153 1332 2094T1393 1950Q1393 1867 1333 1807T1185 1746Z" />
<glyph unicode="&#xfd;" horiz-adv-x="1650" d="M433 -576Q352 -576 282 -564T165 -532L261 -214Q336 -237 396 -239T501 -211T574 -109L599 -44L48 1536H496L814 408H830L1151 1536H1602L1005 -166Q962 -290 889 -382T703 -525T433 -576ZM669 1734L881 2189H1275L970
1734H669Z" />
<glyph unicode="&#xfe;" horiz-adv-x="1726" d="M170 2048H596V1256L447 750L596 302V-576H170V2048ZM426 1359H614Q640 1412 689 1457T814 1529T990 1556Q1157 1556 1299 1469T1527 1206T1613 766Q1613 508 1530 332T1305 66T990 -25Q893 -25 818 0T692 70T614
169H426V1359ZM1209 768Q1209 906 1172 1007T1060 1162T871 1217Q755 1217 686 1158T585 996T554 768Q554 643 584 540T684 376T871 314Q984 314 1059 369T1171 527T1209 768Z" />
<glyph unicode="&#xff;" horiz-adv-x="1650" d="M433 -576Q352 -576 282 -564T165 -532L261 -214Q336 -237 396 -239T501 -211T574 -109L599 -44L48 1536H496L814 408H830L1151 1536H1602L1005 -166Q962 -290 889 -382T703 -525T433 -576ZM518 1746Q431 1746 369
1806T307 1950Q307 2035 369 2094T518 2153Q605 2153 665 2094T726 1950Q726 1867 666 1807T518 1746ZM1130 1746Q1043 1746 981 1806T919 1950Q919 2035 981 2094T1130 2153Q1217 2153 1277 2094T1338 1950Q1338 1867 1278 1807T1130 1746Z" />
<glyph unicode="&#x2013;" horiz-adv-x="1408" d="M1408 1010V672H0V1010H1408Z" />
<glyph unicode="&#x2014;" horiz-adv-x="2816" d="M2816 1010V672H0V1010H2816Z" />
<glyph unicode="&#x2018;" horiz-adv-x="682" d="M155 1408V1624Q155 1716 191 1812T286 1993T414 2135L602 2024Q546 1936 511 1840T475 1626V1408H155Z" />
<glyph unicode="&#x2019;" horiz-adv-x="642" d="M527 2048V1832Q527 1740 492 1645T397 1465T268 1321L80 1432Q130 1511 168 1607T207 1830V2048H527Z" />
<glyph unicode="&#x201a;" horiz-adv-x="682" d="M525 256V40Q525 -52 490 -147T395 -327T266 -471L78 -360Q128 -281 166 -185T205 38V256H525Z" />
<glyph unicode="&#x201c;" horiz-adv-x="1187" d="M155 1408V1624Q155 1716 191 1812T286 1993T414 2135L602 2024Q546 1936 511 1840T475 1626V1408H155ZM660 1408V1624Q660 1716 696 1812T791 1993T919 2135L1107 2024Q1051 1936 1016 1840T980 1626V1408H660Z" />
<glyph unicode="&#x201d;" horiz-adv-x="1185" d="M527 2048V1832Q527 1740 492 1645T397 1465T268 1321L80 1432Q130 1511 168 1607T207 1830V2048H527ZM1030 2048V1832Q1030 1740 995 1645T900 1465T770 1321L582 1432Q633 1511 671 1607T710 1830V2048H1030Z" />
<glyph unicode="&#x201e;" horiz-adv-x="1185" d="M522 256V40Q522 -52 487 -147T392 -327T263 -471L75 -360Q125 -281 163 -185T202 38V256H522ZM1025 256V40Q1025 -52 990 -147T895 -327T765 -471L577 -360Q628 -281 666 -185T705 38V256H1025Z" />
<glyph unicode="&#x2022;" horiz-adv-x="1306" d="M653 376Q532 376 432 435T273 595T213 816Q213 938 272 1037T432 1196T653 1256Q775 1256 874 1197T1033 1038T1093 816Q1093 695 1034 595T875 436T653 376Z" />
<glyph unicode="&#x2039;" horiz-adv-x="1104" d="M954 220H568L164 820V840H570L954 220ZM954 1448L570 828H164V848L568 1448H954Z" />
<glyph unicode="&#x203a;" horiz-adv-x="1104" d="M142 220L526 840H932V820L528 220H142ZM142 1448H528L932 848V828H526L142 1448Z" />
</font>
</defs>
</svg>
