<?xml version="1.0" standalone="no"?>
<!DOCTYPE svg PUBLIC "-//W3C//DTD SVG 1.1//EN" "http://www.w3.org/Graphics/SVG/1.1/DTD/svg11.dtd">
<svg xmlns="http://www.w3.org/2000/svg">
<defs >
<font id="Inter" horiz-adv-x="1838" ><font-face
    font-family="Inter Medium"
    units-per-em="2816"
    panose-1="2 0 5 3 0 0 0 2 0 4"
    ascent="2728"
    descent="-680"
    alphabetic="0" />
<glyph unicode=" " horiz-adv-x="746" />
<glyph unicode="!" horiz-adv-x="827" d="M578 2048L552 589H275L249 2048H578ZM414 -19Q331 -19 272 39T214 181Q213 263 272 321T414 380Q495 380 554 322T614 181Q613 126 586 81T513 8T414 -19Z" />
<glyph unicode="&quot;" horiz-adv-x="1126" d="M428 2048V1319H180V2048H428ZM942 2048V1319H694V2048H942Z" />
<glyph unicode="#" horiz-adv-x="1794" d="M969 0L1305 2048H1545L1209 0H969ZM42 548L81 788H1633L1594 548H42ZM249 0L585 2048H825L489 0H249ZM161 1260L200 1500H1752L1713 1260H161Z" />
<glyph unicode="$" horiz-adv-x="1812" d="M829 -256V2304H993V-256H829ZM1342 1510Q1326 1652 1210 1730T918 1809Q792 1809 700 1770T558 1662T507 1506Q507 1433 541 1380T632 1292T754 1233T879 1194L1079 1142Q1177 1118 1280 1077T1471 969T1613 803T1668
566Q1668 392 1579 257T1320 44T910 -34Q680 -34 512 39T249 246T144 566H454Q463 455 526 382T689 273T908 237Q1039 237 1141 278T1303 394T1362 569Q1362 660 1311 718T1172 814T974 881L732 947Q486 1014 343 1144T199 1488Q199 1665 295 1797T555 2002T925
2076Q1133 2076 1292 2003T1544 1803T1640 1510H1342Z" />
<glyph unicode="%" horiz-adv-x="2332" d="M1266 384V492Q1266 608 1314 704T1456 859T1683 918Q1819 918 1911 860T2050 705T2098 492V384Q2098 268 2050 172T1910 17T1683 -42Q1548 -42 1455 16T1314 171T1266 384ZM1499 492V384Q1499 298 1540 228T1683 158Q1784
158 1824 228T1864 384V492Q1864 578 1826 648T1683 718Q1583 718 1541 648T1499 492ZM236 1556V1664Q236 1780 284 1877T426 2032T653 2090Q789 2090 881 2032T1020 1877T1067 1664V1556Q1067 1440 1020 1344T880 1189T653 1130Q517 1130 425 1188T284 1343T236
1556ZM470 1664V1556Q470 1470 510 1400T653 1330Q753 1330 793 1400T834 1556V1664Q834 1750 795 1820T653 1890Q553 1890 512 1820T470 1664ZM331 0L1739 2048H1978L570 0H331Z" />
<glyph unicode="&amp;" horiz-adv-x="1833" d="M797 -29Q591 -29 443 46T214 250T134 544Q134 669 186 766T331 947T546 1114L876 1347Q960 1402 1007 1463T1054 1616Q1054 1688 992 1754T826 1820Q754 1820 700 1785T615 1696T584 1581Q584 1511 622 1440T722
1294T850 1137L1801 0H1463L676 925Q577 1042 492 1145T355 1355T302 1586Q302 1727 366 1836T547 2008T819 2070Q977 2070 1090 2009T1265 1846T1327 1624Q1327 1478 1255 1367T1055 1162L644 859Q524 771 478 686T431 552Q431 464 476 389T604 269T798 224Q912
224 1020 273T1217 416T1358 639T1410 930H1680Q1680 732 1635 596T1527 374T1407 240Q1389 224 1373 208T1339 176Q1235 71 1088 21T797 -29Z" />
<glyph unicode="&apos;" horiz-adv-x="612" d="M428 2048V1319H180V2048H428Z" />
<glyph unicode="(" horiz-adv-x="1064" d="M288 850Q288 1226 387 1542T676 2125H950Q876 2026 812 1882T700 1567T625 1212T598 850Q598 612 645 368T772 -85T950 -426H676Q486 -159 387 157T288 850Z" />
<glyph unicode=")" horiz-adv-x="1064" d="M776 850Q776 473 677 157T388 -426H114Q188 -327 252 -183T364 132T439 488T466 850Q466 1087 419 1331T292 1784T114 2125H388Q578 1858 677 1542T776 850Z" />
<glyph unicode="*" horiz-adv-x="1469" d="M626 896L645 1318L289 1089L180 1279L558 1472L180 1665L289 1855L645 1626L626 2048H843L824 1626L1180 1855L1289 1665L911 1472L1289 1279L1180 1089L824 1318L843 896H626Z" />
<glyph unicode="+" horiz-adv-x="1875" d="M803 130V1482H1072V130H803ZM262 672V941H1614V672H262Z" />
<glyph unicode="," horiz-adv-x="810" d="M590 280L575 171Q560 51 525 -79T452 -322T390 -500H178Q191 -438 214 -333T259 -97T292 168L302 280H590Z" />
<glyph unicode="-" horiz-adv-x="1304" d="M1106 995V736H198V995H1106Z" />
<glyph unicode="." horiz-adv-x="797" d="M398 -19Q316 -19 257 39T198 181Q198 263 257 321T398 380Q480 380 539 322T598 181Q598 126 571 81T498 8T398 -19Z" />
<glyph unicode="/" horiz-adv-x="1035" d="M981 2144L321 -308H54L714 2144H981Z" />
<glyph unicode="0" horiz-adv-x="1819" d="M910 -34Q673 -33 505 91T248 452T159 1023Q159 1356 248 1592T506 1952T910 2076Q1145 2076 1313 1952T1570 1592T1660 1023Q1660 688 1571 452T1314 91T910 -34ZM910 233Q1118 233 1235 436T1353 1023Q1353 1278 1300
1454T1147 1722T910 1814Q703 1814 585 1610T466 1023Q466 767 519 591T672 324T910 233Z" />
<glyph unicode="1" horiz-adv-x="1331" d="M974 2048V0H664V1738H652L162 1418V1714L673 2048H974Z" />
<glyph unicode="2" horiz-adv-x="1727" d="M197 0V224L890 942Q1001 1059 1073 1147T1182 1316T1218 1486Q1218 1588 1170 1662T1039 1777T852 1818Q742 1818 660 1773T534 1646T490 1454H195Q195 1641 281 1781T517 1998T858 2076Q1051 2076 1198 2000T1429 1792T1512
1495Q1512 1381 1470 1272T1322 1030T1030 706L623 280V265H1545V0H197Z" />
<glyph unicode="3" horiz-adv-x="1814" d="M910 -28Q704 -28 543 43T288 240T187 534H501Q507 443 562 377T708 274T908 238Q1029 238 1122 280T1269 397T1322 572Q1322 675 1270 753T1117 877T874 922H701V1174H874Q988 1174 1074 1215T1210 1329T1259 1502Q1259
1597 1217 1667T1097 1778T914 1818Q814 1818 728 1782T587 1678T529 1516H230Q235 1682 328 1808T576 2005T918 2076Q1115 2076 1258 2000T1480 1796T1558 1518Q1559 1346 1463 1226T1206 1065V1049Q1410 1018 1522 887T1634 562Q1635 393 1541 259T1283 49T910
-28Z" />
<glyph unicode="4" horiz-adv-x="1842" d="M154 400V650L1039 2048H1236V1680H1111L478 678V662H1691V400H154ZM1125 0V476L1127 590V2048H1420V0H1125Z" />
<glyph unicode="5" horiz-adv-x="1746" d="M873 -28Q685 -28 536 44T297 244T202 534H502Q513 402 619 317T873 232Q991 232 1082 286T1226 437T1279 656Q1279 781 1225 879T1077 1033T860 1090Q767 1090 673 1058T521 974L238 1016L353 2048H1479V1783H610L545
1210H557Q617 1268 716 1307T930 1346Q1117 1346 1263 1257T1494 1015T1578 662Q1579 463 1489 307T1239 62T873 -28Z" />
<glyph unicode="6" horiz-adv-x="1790" d="M912 -28Q775 -26 643 22T402 182T230 483T165 955Q165 1223 218 1431T373 1782T617 2001T938 2076Q1121 2076 1263 2004T1493 1805T1606 1516H1301Q1270 1644 1178 1725T938 1806Q713 1806 588 1610T461 1065H476Q529
1152 606 1213T780 1308T984 1342Q1162 1342 1306 1256T1537 1017T1623 669Q1623 473 1535 314T1286 63T912 -28ZM911 232Q1029 232 1122 290T1269 446T1323 665Q1323 783 1271 880T1127 1034T918 1091Q829 1091 754 1057T621 963T532 826T499 662Q499 547 552
449T699 292T911 232Z" />
<glyph unicode="7" horiz-adv-x="1630" d="M266 0L1160 1768V1783H126V2048H1480V1774L589 0H266Z" />
<glyph unicode="8" horiz-adv-x="1778" d="M889 -28Q674 -28 510 46T252 250T160 546Q159 676 213 785T362 968T572 1062V1074Q419 1111 327 1238T236 1530Q235 1687 319 1810T552 2005T889 2076Q1076 2076 1223 2005T1456 1810T1542 1530Q1541 1365 1448 1238T1206
1074V1062Q1321 1042 1413 969T1561 786T1618 546Q1617 380 1524 250T1267 46T889 -28ZM889 225Q1016 225 1109 267T1253 386T1305 566Q1304 673 1250 755T1102 884T889 931Q768 931 674 884T526 755T473 566Q472 463 522 387T667 268T889 225ZM889 1178Q991 1178
1070 1219T1194 1333T1241 1504Q1240 1600 1196 1672T1072 1783T889 1823Q783 1823 704 1784T580 1672T537 1504Q536 1406 581 1333T705 1219T889 1178Z" />
<glyph unicode="9" horiz-adv-x="1790" d="M878 2076Q1015 2075 1148 2026T1388 1866T1560 1567T1626 1098Q1626 829 1572 620T1418 266T1174 47T852 -28Q669 -28 527 44T296 243T185 537H490Q520 405 612 324T852 242Q1077 242 1203 438T1330 988H1314Q1262 902
1185 840T1011 744T806 710Q629 710 484 797T253 1036T167 1383Q167 1577 255 1735T503 1985T878 2076ZM879 1816Q762 1816 669 1759T521 1604T467 1387Q467 1268 519 1172T663 1019T873 962Q961 962 1037 996T1170 1090T1259 1228T1291 1390Q1291 1503 1238 1600T1091
1756T879 1816Z" />
<glyph unicode=":" horiz-adv-x="797" d="M398 -19Q316 -19 257 39T198 181Q198 263 257 321T398 380Q480 380 539 322T598 181Q598 126 571 81T498 8T398 -19ZM398 1099Q316 1099 257 1158T198 1299Q198 1381 257 1439T398 1498Q480 1498 539 1440T598 1299Q598
1244 571 1199T498 1126T398 1099Z" />
<glyph unicode=";" horiz-adv-x="810" d="M590 280L575 171Q560 51 525 -79T452 -322T390 -500H178Q191 -438 214 -333T259 -97T292 168L302 280H590ZM434 1099Q352 1099 293 1158T234 1299Q234 1381 293 1439T434 1498Q516 1498 575 1440T634 1299Q634 1244 607
1199T534 1126T434 1099Z" />
<glyph unicode="&lt;" horiz-adv-x="1875" d="M274 694V918L1602 1562V1257L622 810L631 828V785L622 802L1602 356V50L274 694Z" />
<glyph unicode="=" horiz-adv-x="1875" d="M297 983V1246H1578V983H297ZM297 367V630H1578V367H297Z" />
<glyph unicode="&gt;" horiz-adv-x="1875" d="M1602 694L274 50V356L1254 802L1244 785V828L1254 810L274 1257V1562L1602 918V694Z" />
<glyph unicode="?" horiz-adv-x="1480" d="M528 589V608Q530 794 565 904T667 1082T826 1206Q886 1244 934 1291T1010 1399T1038 1534Q1038 1623 996 1688T885 1788T730 1824Q653 1824 583 1792T467 1693T414 1519H110Q117 1699 201 1823T423 2012T730 2076Q914
2076 1052 2008T1266 1817T1343 1531Q1343 1419 1308 1330T1209 1170T1054 1046Q969 993 917 936T840 801T814 608V589H528ZM679 -19Q597 -19 538 39T479 181Q479 263 538 321T679 380Q760 380 819 322T879 181Q879 126 852 81T779 8T679 -19Z" />
<glyph unicode="@" horiz-adv-x="2725" d="M1434 -557Q1124 -557 885 -473T481 -225T232 176T147 717Q147 1013 233 1249T483 1651T884 1906T1420 1994Q1707 1994 1926 1904T2294 1657T2520 1297T2596 868Q2596 710 2576 560T2503 288T2349 94T2088 18Q2003 15
1923 38T1787 112T1719 244H1707Q1683 185 1627 135T1485 55T1284 30Q1158 35 1057 87T885 231T775 449T737 729Q737 877 780 994T897 1197T1069 1333T1274 1396Q1379 1408 1467 1390T1613 1335T1687 1254H1700V1366H1946V438Q1946 359 1987 304T2106 249Q2197
249 2248 316T2321 522T2343 878Q2343 1030 2303 1164T2184 1408T1991 1597T1732 1719T1410 1762Q1171 1762 985 1689T672 1477T479 1147T413 715Q413 466 480 274T678 -51T1002 -251T1447 -320Q1559 -320 1667 -301T1859 -257T1986 -217L2056 -436Q1994 -465 1892
-493T1670 -539T1434 -557ZM1342 275Q1472 275 1551 327T1666 482T1702 742Q1701 894 1664 984T1548 1114T1346 1154Q1233 1154 1154 1099T1033 950T990 741Q991 620 1024 514T1134 341T1342 275Z" />
<glyph unicode="A" horiz-adv-x="1971" d="M398 0H70L807 2048H1164L1901 0H1573L994 1676H978L398 0ZM453 802H1517V542H453V802Z" />
<glyph unicode="B" horiz-adv-x="1842" d="M225 0V2048H975Q1193 2048 1336 1977T1550 1784T1621 1510Q1621 1382 1574 1295T1449 1155T1276 1078V1058Q1378 1053 1475 993T1637 821T1701 551Q1701 394 1628 270T1401 73T1010 0H225ZM534 265H980Q1202 265 1298
351T1394 566Q1394 663 1345 744T1206 873T991 921H534V265ZM534 1162H948Q1052 1162 1135 1202T1268 1314T1318 1486Q1318 1613 1229 1699T956 1785H534V1162Z" />
<glyph unicode="C" horiz-adv-x="2071" d="M1926 1382H1614Q1596 1482 1547 1558T1427 1687T1269 1767T1083 1794Q906 1794 767 1705T547 1444T466 1024Q466 774 546 602T767 342T1082 254Q1179 254 1266 280T1425 359T1545 486T1614 660L1926 659Q1901 508 1830
382T1647 164T1392 22T1080 -28Q814 -28 606 98T279 461T159 1024Q159 1352 279 1587T607 1949T1080 2076Q1243 2076 1384 2030T1639 1894T1826 1676T1926 1382Z" />
<glyph unicode="D" horiz-adv-x="2032" d="M888 0H225V2048H909Q1210 2048 1426 1926T1757 1575T1873 1027Q1873 707 1757 477T1420 124T888 0ZM534 270H871Q1105 270 1260 358T1492 615T1569 1027Q1569 1268 1493 1436T1265 1691T890 1778H534V270Z" />
<glyph unicode="E" horiz-adv-x="1698" d="M225 0V2048H1509V1782H534V1158H1442V893H534V266H1521V0H225Z" />
<glyph unicode="F" horiz-adv-x="1650" d="M225 0V2048H1495V1782H534V1158H1404V893H534V0H225Z" />
<glyph unicode="G" horiz-adv-x="2109" d="M1611 1401Q1582 1492 1534 1564T1418 1688T1266 1767T1078 1794Q905 1794 766 1705T547 1445T466 1025Q466 776 547 604T769 343T1090 254Q1257 254 1381 322T1574 514T1643 808L1723 793H1137V1048H1942V815Q1942 557
1833 368T1531 75T1090 -28Q812 -28 603 100T276 463T159 1023Q159 1268 227 1463T418 1794T709 2003T1076 2076Q1242 2076 1385 2027T1641 1888T1828 1675T1928 1401H1611Z" />
<glyph unicode="H" horiz-adv-x="2090" d="M225 0V2048H534V1158H1555V2048H1865V0H1555V893H534V0H225Z" />
<glyph unicode="I" horiz-adv-x="759" d="M534 2048V0H225V2048H534Z" />
<glyph unicode="J" horiz-adv-x="1554" d="M1021 2048H1329V596Q1329 399 1252 259T1034 46T706 -28Q533 -28 396 35T179 218T99 512H406Q406 427 445 365T554 269T714 234Q812 234 880 275T985 398T1021 596V2048Z" />
<glyph unicode="K" horiz-adv-x="1871" d="M225 0V2048H534V1070H559L1418 2048H1807L981 1126L1810 0H1438L776 915L534 637V0H225Z" />
<glyph unicode="L" horiz-adv-x="1589" d="M225 0V2048H534V266H1462V0H225Z" />
<glyph unicode="M" horiz-adv-x="2528" d="M225 2048H600L1252 456H1276L1928 2048H2303V0H2009V1482H1990L1386 3H1142L538 1483H519V0H225V2048Z" />
<glyph unicode="N" horiz-adv-x="2103" d="M1878 2048V0H1594L553 1502H534V0H225V2048H511L1553 544H1572V2048H1878Z" />
<glyph unicode="O" horiz-adv-x="2163" d="M2004 1024Q2004 696 1884 461T1556 99T1082 -28Q816 -28 608 98T279 461T159 1024Q159 1352 279 1587T607 1949T1082 2076Q1347 2076 1555 1950T1884 1588T2004 1024ZM1698 1024Q1698 1274 1618 1445T1398 1705T1082
1794Q905 1794 766 1706T547 1446T466 1024Q466 774 546 603T766 343T1082 254Q1258 254 1397 342T1617 602T1698 1024Z" />
<glyph unicode="P" horiz-adv-x="1800" d="M225 0V2048H955Q1194 2048 1351 1961T1586 1724T1664 1385Q1664 1196 1586 1046T1350 808T954 720H452V982H926Q1077 982 1171 1034T1309 1178T1353 1385Q1353 1501 1309 1591T1171 1732T922 1783H534V0H225Z" />
<glyph unicode="Q" horiz-adv-x="2164" d="M978 664H1282L1496 385L1597 261L1938 -184H1622L1394 113L1316 221L978 664ZM2004 1024Q2004 696 1884 461T1556 99T1082 -28Q816 -28 608 98T279 461T159 1024Q159 1352 279 1587T607 1949T1082 2076Q1347 2076 1555
1950T1884 1588T2004 1024ZM1698 1024Q1698 1274 1618 1445T1398 1705T1082 1794Q905 1794 766 1706T547 1446T466 1024Q466 774 546 603T766 343T1082 254Q1258 254 1397 342T1617 602T1698 1024Z" />
<glyph unicode="R" horiz-adv-x="1816" d="M225 0V2048H955Q1193 2048 1350 1966T1586 1740T1664 1406Q1664 1218 1586 1076T1350 854T954 775H401V1041H926Q1076 1041 1170 1084T1309 1209T1353 1406Q1353 1522 1309 1607T1170 1737T922 1783H534V0H225ZM1236
924L1742 0H1390L894 924H1236Z" />
<glyph unicode="S" horiz-adv-x="1812" d="M1342 1510Q1326 1652 1210 1730T918 1809Q792 1809 700 1770T558 1662T507 1506Q507 1433 541 1380T632 1292T754 1233T879 1194L1079 1142Q1177 1118 1280 1077T1471 969T1613 803T1668 566Q1668 392 1579 257T1320
44T910 -34Q680 -34 512 39T249 246T144 566H454Q463 455 526 382T689 273T908 237Q1039 237 1141 278T1303 394T1362 569Q1362 660 1311 718T1172 814T974 881L732 947Q486 1014 343 1144T199 1488Q199 1665 295 1797T555 2002T925 2076Q1133 2076 1292 2003T1544
1803T1640 1510H1342Z" />
<glyph unicode="T" horiz-adv-x="1833" d="M124 1782V2048H1709V1782H1070V0H762V1782H124Z" />
<glyph unicode="U" horiz-adv-x="2077" d="M1542 2048H1852V701Q1852 486 1751 321T1467 61T1038 -34Q793 -34 610 60T326 320T225 701V2048H534V726Q534 587 595 479T770 310T1038 248Q1194 248 1307 309T1481 479T1542 726V2048Z" />
<glyph unicode="V" horiz-adv-x="1971" d="M404 2048L974 380H997L1567 2048H1901L1164 0H807L70 2048H404Z" />
<glyph unicode="W" horiz-adv-x="2754" d="M626 0L58 2048H383L782 462H801L1216 2048H1538L1953 461H1972L2370 2048H2696L2127 0H1816L1385 1534H1369L938 0H626Z" />
<glyph unicode="X" horiz-adv-x="1876" d="M440 2048L930 1247H946L1436 2048H1794L1156 1024L1798 0H1438L946 790H930L438 0H78L731 1024L82 2048H440Z" />
<glyph unicode="Y" horiz-adv-x="1928" d="M67 2048H418L953 1117H975L1510 2048H1861L1118 804V0H810V804L67 2048Z" />
<glyph unicode="Z" horiz-adv-x="1799" d="M172 0V206L1249 1782H163V2048H1627V1842L550 266H1636V0H172Z" />
<glyph unicode="[" horiz-adv-x="1064" d="M321 -426V2125H978V1888H607V-189H978V-426H321Z" />
<glyph unicode="\" horiz-adv-x="1035" d="M714 -308L54 2144H321L981 -308H714Z" />
<glyph unicode="]" horiz-adv-x="1064" d="M743 2125V-426H86V-189H457V1888H86V2125H743Z" />
<glyph unicode="^" horiz-adv-x="1338" d="M633 1857H705V1754H633V1857ZM106 1120L521 1990H817L1232 1120H967L658 1794H680L374 1120H106Z" />
<glyph unicode="_" horiz-adv-x="1295" d="M1298 0V-254H-3V0H1298Z" />
<glyph unicode="`" horiz-adv-x="1400" d="M735 1741L426 2202H741L974 1741H735Z" />
<glyph unicode="a" horiz-adv-x="1603" d="M648 -34Q502 -34 384 20T198 179T129 434Q129 564 179 648T314 781T504 855T718 893Q856 909 942 919T1067 954T1106 1032V1039Q1106 1170 1033 1242T814 1314Q663 1314 577 1248T457 1100L176 1164Q226 1304 322 1390T545
1516T810 1556Q902 1556 1005 1535T1199 1456T1348 1294T1406 1020V0H1114V210H1102Q1073 152 1015 96T866 3T648 -34ZM713 206Q837 206 925 255T1060 383T1107 554V752Q1091 736 1046 723T942 700T829 683T737 670Q650 659 579 633T465 559T422 430Q422 319 504
263T713 206Z" />
<glyph unicode="b" horiz-adv-x="1762" d="M225 0V2048H524V1287H542Q568 1335 617 1398T753 1508T983 1556Q1169 1556 1315 1462T1544 1191T1628 765Q1628 516 1545 339T1317 66T986 -30Q846 -30 758 17T619 127T542 239H517V0H225ZM518 768Q518 606 565 484T701
294T919 225Q1053 225 1143 296T1279 491T1326 768Q1326 920 1281 1041T1145 1232T919 1302Q789 1302 700 1235T564 1048T518 768Z" />
<glyph unicode="c" horiz-adv-x="1599" d="M848 -31Q625 -31 465 70T218 351T132 761Q132 995 220 1174T468 1455T845 1556Q1020 1556 1157 1492T1378 1311T1479 1040H1188Q1164 1148 1079 1226T850 1304Q725 1304 632 1239T486 1053T434 768Q434 600 485 478T629
289T850 222Q935 222 1004 253T1121 344T1188 486H1479Q1463 337 1382 220T1166 36T848 -31Z" />
<glyph unicode="d" horiz-adv-x="1762" d="M776 -30Q590 -30 445 65T217 338T134 765Q134 1014 217 1191T447 1462T778 1556Q921 1556 1008 1509T1144 1398T1220 1287H1238V2048H1537V0H1245V239H1220Q1193 190 1143 127T1004 17T776 -30ZM842 225Q971 225 1060
293T1196 484T1243 768Q1243 928 1197 1048T1062 1235T842 1302Q707 1302 617 1232T482 1041T436 768Q436 614 482 491T618 297T842 225Z" />
<glyph unicode="e" horiz-adv-x="1654" d="M863 -31Q636 -31 473 66T221 341T132 758Q132 994 220 1174T468 1455T842 1556Q972 1556 1094 1513T1313 1378T1466 1140T1522 784V678H301V902H1229Q1229 1020 1181 1111T1047 1256T844 1309Q718 1309 625 1248T481
1088T430 874V699Q430 545 484 437T637 273T866 216Q951 216 1021 240T1142 314T1220 435L1503 384Q1469 259 1382 166T1163 21T863 -31Z" />
<glyph unicode="f" horiz-adv-x="1039" d="M932 1536V1296H64V1536H932ZM302 0V1714Q302 1858 365 1953T532 2096T758 2144Q848 2144 912 2130T1007 2103L937 1861Q916 1867 883 1875T803 1884Q694 1884 648 1830T601 1674V0H302Z" />
<glyph unicode="g" horiz-adv-x="1738" d="M845 -608Q662 -608 531 -560T316 -433T192 -260L449 -154Q476 -198 521 -247T645 -332T848 -367Q1018 -367 1129 -285T1240 -22V280H1221Q1194 231 1144 171T1005 67T776 23Q594 23 449 108T219 361T134 774Q134 1019
217 1194T447 1462T778 1556Q921 1556 1009 1509T1146 1398T1223 1287H1245V1536H1538V-34Q1538 -232 1446 -359T1198 -547T845 -608ZM842 271Q971 271 1060 331T1196 505T1243 778Q1243 933 1197 1051T1062 1235T842 1302Q707 1302 617 1233T482 1044T436 778Q436
627 482 513T618 335T842 271Z" />
<glyph unicode="h" horiz-adv-x="1695" d="M500 912V0H201V2048H496V1286H515Q569 1410 680 1483T970 1556Q1128 1556 1246 1491T1430 1298T1496 977V0H1197V941Q1197 1110 1110 1203T868 1297Q762 1297 679 1252T548 1121T500 912Z" />
<glyph unicode="i" horiz-adv-x="701" d="M201 0V1536H500V0H201ZM352 1773Q274 1773 219 1825T163 1951Q163 2025 218 2077T352 2130Q430 2130 485 2078T541 1951Q541 1878 486 1826T352 1773Z" />
<glyph unicode="j" horiz-adv-x="701" d="M201 1536H500V-100Q500 -254 445 -360T281 -521T13 -576Q-3 -576 -17 -576T-48 -575V-318Q-34 -318 -24 -318T0 -318Q106 -318 153 -262T201 -98V1536ZM349 1773Q271 1773 216 1825T160 1951Q160 2025 215 2077T349 2130Q427
2130 482 2078T538 1951Q538 1878 483 1826T349 1773Z" />
<glyph unicode="k" horiz-adv-x="1567" d="M476 521L474 886H526L1138 1536H1496L798 796H751L476 521ZM201 0V2048H500V0H201ZM1171 0L621 730L827 939L1538 0H1171Z" />
<glyph unicode="l" horiz-adv-x="701" d="M500 2048V0H201V2048H500Z" />
<glyph unicode="m" horiz-adv-x="2488" d="M201 0V1536H488V1286H507Q555 1413 664 1484T925 1556Q1079 1556 1183 1484T1338 1286H1354Q1409 1409 1529 1482T1815 1556Q2024 1556 2156 1425T2289 1030V0H1990V1002Q1990 1158 1905 1228T1702 1298Q1556 1298 1475
1209T1394 979V0H1096V1021Q1096 1146 1018 1222T815 1298Q730 1298 659 1254T544 1130T500 947V0H201Z" />
<glyph unicode="n" horiz-adv-x="1682" d="M500 912V0H201V1536H488V1286H507Q560 1408 673 1482T960 1556Q1117 1556 1235 1491T1418 1296T1483 977V0H1184V941Q1184 1108 1097 1202T858 1297Q754 1297 674 1252T547 1121T500 912Z" />
<glyph unicode="o" horiz-adv-x="1696" d="M848 -31Q632 -31 471 68T221 345T132 761Q132 1000 221 1179T471 1457T848 1556Q1064 1556 1225 1457T1475 1179T1564 761Q1564 523 1475 345T1225 68T848 -31ZM849 220Q989 220 1081 294T1217 491T1262 762Q1262 909
1218 1032T1081 1231T849 1306Q708 1306 616 1231T479 1033T434 762Q434 614 478 491T615 294T849 220Z" />
<glyph unicode="p" horiz-adv-x="1738" d="M201 -576V1536H493V1287H518Q544 1335 593 1398T729 1508T959 1556Q1145 1556 1291 1462T1520 1191T1604 765Q1604 516 1521 339T1293 66T962 -30Q822 -30 734 17T595 127T518 239H500V-576H201ZM494 768Q494 606 541
484T677 294T895 225Q1029 225 1119 296T1255 491T1302 768Q1302 920 1257 1041T1121 1232T895 1302Q765 1302 676 1235T540 1048T494 768Z" />
<glyph unicode="q" horiz-adv-x="1738" d="M1238 -576V239H1220Q1193 190 1143 127T1004 17T776 -30Q590 -30 445 65T217 338T134 765Q134 1014 217 1191T447 1462T778 1556Q921 1556 1008 1509T1144 1398T1220 1287H1245V1536H1537V-576H1238ZM842 225Q971 225
1060 293T1196 484T1243 768Q1243 928 1197 1048T1062 1235T842 1302Q707 1302 617 1232T482 1041T436 768Q436 614 482 491T618 297T842 225Z" />
<glyph unicode="r" horiz-adv-x="1082" d="M201 0V1536H490V1292H506Q548 1416 654 1487T896 1559Q924 1559 962 1557T1023 1552V1266Q1005 1271 959 1277T867 1284Q761 1284 679 1240T548 1117T500 938V0H201Z" />
<glyph unicode="s" horiz-adv-x="1509" d="M1352 1161L1081 1113Q1064 1165 1028 1212T929 1289T774 1319Q647 1319 562 1263T477 1117Q477 1040 534 993T718 916L962 860Q1174 811 1278 709T1382 444Q1382 306 1303 199T1082 30T754 -31Q496 -31 333 79T133 394L422
438Q449 325 533 268T752 210Q899 210 987 271T1075 422Q1075 494 1022 543T858 617L598 674Q383 723 281 830T178 1101Q178 1237 254 1339T464 1498T771 1556Q1020 1556 1163 1449T1352 1161Z" />
<glyph unicode="t" horiz-adv-x="1047" d="M918 1536V1296H79V1536H918ZM304 1904H603V451Q603 364 629 321T696 262T787 246Q823 246 850 251T892 259L946 12Q920 2 872 -8T752 -20Q634 -22 532 22T367 158T304 389V1904Z" />
<glyph unicode="u" horiz-adv-x="1674" d="M1174 637V1536H1474V0H1180V266H1164Q1111 143 995 62T705 -20Q557 -20 444 45T266 240T201 559V1536H500V595Q500 438 587 345T813 252Q897 252 980 294T1119 421T1174 637Z" />
<glyph unicode="v" horiz-adv-x="1595" d="M1515 1536L958 0H638L80 1536H401L790 354H806L1194 1536H1515Z" />
<glyph unicode="w" horiz-adv-x="2323" d="M534 0L82 1536H391L692 408H707L1009 1536H1318L1618 413H1633L1932 1536H2241L1790 0H1485L1173 1109H1150L838 0H534Z" />
<glyph unicode="x" horiz-adv-x="1552" d="M437 1536L776 938L1118 1536H1445L966 768L1449 0H1122L776 574L431 0H103L581 768L109 1536H437Z" />
<glyph unicode="y" horiz-adv-x="1595" d="M390 -576Q323 -576 268 -566T186 -543L258 -298Q340 -320 404 -317T517 -269T605 -122L642 -20L80 1536H400L789 344H805L1194 1536H1515L882 -205Q838 -325 770 -408T608 -534T390 -576Z" />
<glyph unicode="z" horiz-adv-x="1553" d="M169 0V205L1001 1262V1276H196V1536H1374V1318L574 274V260H1402V0H169Z" />
<glyph unicode="{" horiz-adv-x="1064" d="M98 844V994Q267 994 334 1063T401 1294V1581Q401 1734 435 1838T541 2006T721 2097T978 2125V1888Q862 1888 797 1854T707 1749T681 1566V1202Q681 1125 658 1060T573 946T396 871T98 844ZM978 -426Q830 -426 721 -398T541
-307T436 -140T401 118V406Q401 566 334 636T98 706V855Q281 855 396 829T573 754T658 640T681 497V133Q681 23 706 -48T797 -154T978 -189V-426ZM98 706V994H375V706H98Z" />
<glyph unicode="|" horiz-adv-x="964" d="M616 2708V-660H348V2708H616Z" />
<glyph unicode="}" horiz-adv-x="1064" d="M966 855V706Q797 706 730 636T663 406V118Q663 -35 629 -139T523 -307T343 -398T86 -426V-189Q202 -189 267 -155T357 -49T383 133V497Q383 574 406 639T491 753T668 828T966 855ZM86 2125Q234 2125 343 2097T523 2006T628
1839T663 1581V1294Q663 1133 730 1064T966 994V844Q783 844 668 871T491 946T406 1059T383 1202V1566Q383 1677 358 1748T267 1854T86 1888V2125ZM966 994V706H689V994H966Z" />
<glyph unicode="~" horiz-adv-x="1875" d="M226 590Q222 763 277 874T427 1038T634 1092Q734 1092 819 1050T1013 911Q1081 852 1124 826T1220 799Q1301 799 1349 859T1396 1039H1649Q1653 865 1598 754T1448 590T1241 537Q1140 537 1055 580T862 718Q792 779
750 804T655 830Q578 830 528 775T479 590H226Z" />
<glyph unicode="&#xa0;" horiz-adv-x="746" />
<glyph unicode="&#xa1;" horiz-adv-x="827" d="M578 -519H249L275 940H552L578 -519ZM414 1548Q495 1548 554 1490T614 1348Q613 1266 554 1208T414 1149Q331 1149 272 1207T214 1348Q213 1404 240 1449T313 1521T414 1548Z" />
<glyph unicode="&#xa2;" horiz-adv-x="1599" d="M756 0V2048H920V0H756ZM848 230Q625 230 465 331T218 612T132 1022Q132 1257 220 1436T468 1716T845 1818Q1020 1818 1157 1754T1378 1573T1479 1302H1188Q1164 1410 1079 1488T850 1566Q725 1566 632 1501T486
1315T434 1030Q434 862 485 740T629 551T850 484Q935 484 1004 515T1121 606T1188 748H1479Q1463 599 1382 482T1166 298T848 230Z" />
<glyph unicode="&#xa3;" horiz-adv-x="1814" d="M1589 0H189V266H1589V0ZM1169 802H182V1068H1169V802ZM684 1442L716 579Q722 450 683 349T542 187L286 266Q340 269 369 321T408 443T416 571L387 1442Q379 1652 465 1793T696 2005T1006 2076Q1154 2076 1272 2027T1472
1894T1589 1701T1603 1474L1314 1520Q1324 1618 1283 1683T1170 1781T1017 1814Q932 1814 856 1774T732 1652T684 1442Z" />
<glyph unicode="&#xa4;" horiz-adv-x="2075" d="M1034 -28Q863 -28 714 37T450 221T273 496T209 836Q209 1019 272 1175T450 1449T713 1631T1034 1696Q1205 1696 1354 1631T1617 1449T1796 1176T1861 836Q1861 653 1796 496T1618 221T1355 38T1034 -28ZM1034 206Q1156
206 1263 255T1450 390T1577 591T1623 836Q1623 1012 1544 1154T1331 1381T1034 1466Q869 1466 735 1382T521 1155T441 836Q441 662 520 519T734 291T1034 206ZM1623 1267L1453 1445L1731 1729L1906 1551L1623 1267ZM1731 -25L1453 259L1623 433L1906 153L1731
-25ZM342 -25L172 153L450 433L625 259L342 -25ZM450 1267L172 1551L342 1729L625 1445L450 1267Z" />
<glyph unicode="&#xa5;" horiz-adv-x="1566" d="M372 2048L862 944L637 817L40 2048H372ZM706 947L1194 2048H1526L929 817L706 947ZM935 1077V0H627V1077H935ZM1369 1032V830H183V1032H1369ZM1369 636V434H183V636H1369Z" />
<glyph unicode="&#xa6;" horiz-adv-x="822" d="M274 558H548V-384H274V558ZM548 2048V1110H274V2048H548Z" />
<glyph unicode="&#xa7;" horiz-adv-x="1591" d="M1316 1556H1039Q1039 1668 978 1742T788 1816Q710 1816 657 1789T577 1718T549 1625Q549 1569 582 1521T663 1436T756 1374L1142 1163Q1182 1143 1234 1107T1334 1017T1414 889T1442 716Q1440 639 1400 571T1299
453T1172 383L1170 379Q1246 313 1283 227T1321 39Q1321 -112 1247 -213T1051 -364T785 -415Q618 -415 489 -351T287 -169T214 112H494Q494 -18 575 -87T786 -154Q886 -154 964 -107T1042 39Q1042 107 1009 153T929 232T837 290L450 497Q411 518 359 554T258 644T178
774T150 948Q152 1024 190 1093T288 1212T421 1284V1290Q353 1357 312 1439T271 1625Q271 1755 337 1857T520 2017T788 2076Q949 2076 1067 2009T1251 1825T1316 1556ZM1179 709Q1181 759 1157 802T1092 880T1000 942L627 1145Q586 1168 536 1148T450 1077T412
955Q409 874 462 817T594 718L954 525Q992 504 1044 523T1137 591T1179 709Z" />
<glyph unicode="&#xa8;" horiz-adv-x="1611" d="M512 1777Q441 1777 388 1829T335 1951Q335 2026 388 2076T512 2126Q587 2126 637 2076T688 1951Q688 1882 638 1830T512 1777ZM1100 1777Q1029 1777 976 1829T923 1951Q923 2026 976 2076T1100 2126Q1175 2126
1225 2076T1276 1951Q1276 1882 1226 1830T1100 1777Z" />
<glyph unicode="&#xa9;" horiz-adv-x="2576" d="M713 1024Q713 1185 792 1318T1003 1529T1297 1608Q1437 1608 1556 1548T1753 1382T1848 1146H1588Q1570 1239 1487 1298T1297 1358Q1205 1358 1129 1313T1008 1193T963 1024Q963 932 1008 856T1129 735T1297 690Q1403
690 1478 749T1572 902H1832Q1815 771 1741 666T1552 501T1297 440Q1136 440 1004 518T792 730T713 1024ZM1288 -32Q1070 -32 879 50T542 277T314 614T232 1024Q233 1243 315 1434T543 1770T879 1998T1288 2080Q1507 2080 1698 1998T2034 1771T2261 1434T2344 1024Q2345
805 2263 614T2036 278T1699 50T1288 -32ZM1288 234Q1452 234 1596 295T1848 464T2018 716T2078 1023Q2078 1187 2017 1331T1847 1583T1595 1753T1288 1814Q1125 1814 982 1753T731 1583T560 1331T498 1023Q497 861 558 718T728 466T980 296T1288 234Z" />
<glyph unicode="&#xaa;" horiz-adv-x="1300" d="M819 1184V1652Q819 1738 780 1783T658 1828Q567 1828 516 1793T465 1692L226 1711Q226 1850 343 1941T658 2032Q839 2032 950 1937T1062 1652V1220Q1062 1156 1069 1095T1098 971H852Q837 1019 828 1074T819 1184ZM880
1583V1423H678Q558 1423 503 1377T448 1271Q448 1215 486 1183T610 1151Q666 1151 724 1176T821 1238T860 1308L884 1147Q853 1081 772 1017T549 952Q383 952 293 1037T202 1264Q202 1417 320 1500T678 1583H880Z" />
<glyph unicode="&#xab;" horiz-adv-x="1601" d="M851 220H584L180 820V840H467L851 220ZM851 1448L467 828H180V848L584 1448H851ZM1412 220H1145L741 820V840H1028L1412 220ZM1412 1448L1028 828H741V848L1145 1448H1412Z" />
<glyph unicode="&#xac;" horiz-adv-x="1558" d="M1361 1108V872H202V1108H1361ZM1361 1000V516H1082V1000H1361Z" />
<glyph unicode="&#xad;" horiz-adv-x="1304" d="M1106 995V736H198V995H1106Z" />
<glyph unicode="&#xae;" horiz-adv-x="1882" d="M658 916V1654H1027Q1081 1654 1135 1628T1226 1548T1263 1415Q1263 1335 1225 1279T1130 1194T1016 1165H754V1292H970Q1006 1292 1041 1323T1077 1415Q1077 1479 1042 1503T973 1527H830V916H658ZM1112 1262L1291
916H1102L930 1262H1112ZM941 476Q775 476 630 538T375 710T203 965T141 1276Q141 1442 203 1587T375 1842T630 2014T941 2076Q1107 2076 1252 2014T1507 1842T1679 1587T1741 1276Q1741 1110 1679 965T1507 710T1252 538T941 476ZM941 674Q1107 674 1243 755T1461
973T1542 1276Q1542 1442 1461 1578T1244 1796T941 1878Q775 1878 638 1797T420 1579T339 1276Q339 1110 420 974T638 756T941 674Z" />
<glyph unicode="&#xaf;" horiz-adv-x="1373" d="M1161 2048V1838H212V2048H1161Z" />
<glyph unicode="&#xb0;" horiz-adv-x="1285" d="M642 1122Q512 1122 406 1185T236 1356T172 1593Q172 1723 235 1829T405 1999T642 2063Q772 2063 879 2000T1049 1830T1113 1593Q1113 1463 1050 1356T879 1186T642 1122ZM642 1350Q710 1350 765 1383T852 1471T885
1593Q885 1660 853 1715T765 1802T642 1835Q575 1835 520 1803T433 1715T400 1593Q400 1526 432 1471T520 1383T642 1350Z" />
<glyph unicode="&#xb1;" horiz-adv-x="1875" d="M274 90V352H1602V90H274ZM274 906V1165H1602V906H274ZM803 518V1552H1072V518H803Z" />
<glyph unicode="&#xb2;" horiz-adv-x="1187" d="M134 1024V1202L609 1609Q674 1665 719 1710T787 1798T811 1892Q811 1976 746 2024T584 2073Q482 2073 420 2020T358 1878H121Q121 2056 252 2162T588 2268Q726 2268 829 2219T989 2086T1047 1896Q1047 1812 1013
1740T907 1594T722 1430L490 1234V1225H1076V1024H134Z" />
<glyph unicode="&#xb3;" horiz-adv-x="1223" d="M609 1008Q466 1008 355 1054T178 1182T110 1372H362Q365 1299 435 1256T609 1213Q717 1213 788 1260T859 1386Q859 1462 785 1511T582 1560H469V1742H582Q687 1742 756 1788T825 1910Q825 1981 767 2027T613 2073Q516
2073 447 2028T375 1909H138Q140 2016 203 2096T374 2222T614 2268Q748 2268 849 2223T1008 2100T1066 1924Q1066 1816 992 1749T810 1664V1655Q957 1637 1036 1559T1115 1368Q1115 1264 1050 1183T871 1055T609 1008Z" />
<glyph unicode="&#xb4;" horiz-adv-x="1400" d="M551 1741L785 2202H1100L790 1741H551Z" />
<glyph unicode="&#xb5;" horiz-adv-x="1794" d="M201 -570V1536H500V637Q500 523 549 436T688 301T897 252Q1016 252 1105 301T1244 436T1294 637V1536H1593V0H1299V225H1287Q1231 111 1126 51T897 -10Q773 -10 669 50T506 225H494V-570H201Z" />
<glyph unicode="&#xb6;" horiz-adv-x="1698" d="M1410 1792H946V760H830Q609 760 457 843T226 1072T147 1404Q147 1588 225 1733T456 1963T830 2048H1410V1792ZM1194 0V2048H1473V0H1194Z" />
<glyph unicode="&#xb7;" horiz-adv-x="797" d="M398 697Q316 697 257 755T198 897Q198 979 257 1037T398 1096Q480 1096 539 1038T598 897Q598 842 571 797T498 724T398 697Z" />
<glyph unicode="&#xb8;" horiz-adv-x="853" d="M330 8H526L510 -74Q597 -88 662 -144T727 -313Q728 -448 611 -532T271 -616L265 -449Q369 -449 433 -419T499 -322Q500 -255 450 -228T289 -190L330 8Z" />
<glyph unicode="&#xb9;" horiz-adv-x="889" d="M427 1024V2014H418L109 1812V2041L432 2252H663V1024H427Z" />
<glyph unicode="&#xba;" horiz-adv-x="1298" d="M168 1436V1543Q168 1686 226 1796T393 1969T649 2032Q873 2032 1001 1895T1130 1543V1436Q1130 1294 1072 1185T907 1014T653 951Q428 951 298 1087T168 1436ZM410 1543V1436Q410 1313 471 1233T653 1152Q771 1152
829 1232T887 1436V1543Q887 1663 829 1745T649 1828Q531 1828 471 1746T410 1543Z" />
<glyph unicode="&#xbb;" horiz-adv-x="1604" d="M173 220L557 840H844V820L440 220H173ZM173 1448H440L844 848V828H557L173 1448ZM737 220L1121 840H1408V820L1004 220H737ZM737 1448H1004L1408 848V828H1121L737 1448Z" />
<glyph unicode="&#xbc;" horiz-adv-x="2484" d="M369 0L1777 2048H2016L608 0H369ZM367 1216V2071H358L92 1897V2122L372 2304H598V1216H367ZM1442 189V372L1961 1088H2120V837H2025L1681 382V376H2406V189H1442ZM2030 0V246L2034 327V1088H2251V0H2030Z" />
<glyph unicode="&#xbd;" horiz-adv-x="2598" d="M369 0L1777 2048H2016L608 0H369ZM367 1216V2071H358L92 1897V2122L372 2304H598V1216H367ZM1641 0V168L2073 522Q2161 595 2205 648T2250 762Q2250 836 2192 878T2048 921Q1961 921 1904 876T1847 752H1625Q1625
911 1744 1007T2053 1104Q2243 1104 2357 1007T2471 766Q2471 692 2441 629T2346 499T2176 353L1977 197V188H2501V0H1641Z" />
<glyph unicode="&#xbe;" horiz-adv-x="2687" d="M572 0L1980 2048H2219L811 0H572ZM1645 189V372L2164 1088H2323V837H2228L1884 382V376H2609V189H1645ZM2233 0V246L2237 327V1088H2454V0H2233ZM552 1200Q419 1200 317 1243T156 1361T97 1532H333Q334 1470 396
1431T550 1391Q644 1391 706 1433T768 1539Q768 1605 702 1645T526 1686H424V1854H526Q619 1854 680 1893T742 1996Q742 2057 690 2097T551 2138Q467 2138 408 2098T346 1996H121Q123 2090 180 2163T334 2278T554 2320Q676 2320 770 2280T916 2170T969 2013Q969
1921 904 1860T734 1784V1775Q868 1759 939 1691T1011 1522Q1011 1429 952 1356T790 1242T552 1200Z" />
<glyph unicode="&#xbf;" horiz-adv-x="1480" d="M952 938V918Q951 734 915 624T813 446T654 320Q595 284 547 236T470 128T442 -8Q442 -96 484 -161T595 -262T750 -298Q827 -298 897 -266T1013 -166T1066 7H1370Q1364 -173 1280 -297T1057 -485T750 -550Q566 -550
428 -482T214 -290T137 -5Q137 108 172 197T272 357T426 481Q511 533 563 590T640 725T666 918V938H952ZM801 1546Q883 1546 942 1487T1001 1346Q1001 1264 942 1205T801 1146Q720 1146 661 1205T601 1346Q601 1401 628 1446T701 1518T801 1546Z" />
<glyph unicode="&#xc0;" horiz-adv-x="1971" d="M398 0H70L807 2048H1164L1901 0H1573L994 1676H978L398 0ZM453 802H1517V542H453V802ZM869 2253L560 2714H875L1108 2253H869Z" />
<glyph unicode="&#xc1;" horiz-adv-x="1971" d="M398 0H70L807 2048H1164L1901 0H1573L994 1676H978L398 0ZM453 802H1517V542H453V802ZM862 2253L1096 2714H1411L1101 2253H862Z" />
<glyph unicode="&#xc2;" horiz-adv-x="1971" d="M398 0H70L807 2048H1164L1901 0H1573L994 1676H978L398 0ZM453 802H1517V542H453V802ZM1191 2232L986 2500L780 2232H510V2247L861 2671H1110L1462 2247V2232H1191Z" />
<glyph unicode="&#xc3;" horiz-adv-x="1971" d="M398 0H70L807 2048H1164L1901 0H1573L994 1676H978L398 0ZM453 802H1517V542H453V802ZM685 2251L483 2258Q483 2423 573 2522T794 2622Q856 2622 902 2602T988 2554T1069 2507T1160 2486Q1217 2487 1253 2530T1290
2639L1488 2626Q1487 2459 1398 2364T1177 2268Q1106 2268 1059 2288T976 2335T902 2382T811 2403Q756 2403 721 2360T685 2251Z" />
<glyph unicode="&#xc4;" horiz-adv-x="1971" d="M398 0H70L807 2048H1164L1901 0H1573L994 1676H978L398 0ZM453 802H1517V542H453V802ZM692 2289Q621 2289 568 2341T515 2463Q515 2538 568 2588T692 2638Q767 2638 817 2588T868 2463Q868 2394 818 2342T692 2289ZM1280
2289Q1209 2289 1156 2341T1103 2463Q1103 2538 1156 2588T1280 2638Q1355 2638 1405 2588T1456 2463Q1456 2394 1406 2342T1280 2289Z" />
<glyph unicode="&#xc5;" horiz-adv-x="1971" d="M398 0H70L807 2048H1164L1901 0H1573L994 1676H978L398 0ZM453 802H1517V542H453V802ZM986 2181Q863 2181 777 2267T690 2474Q690 2555 729 2622T836 2728T986 2768Q1067 2768 1134 2729T1242 2622T1282 2474Q1282
2393 1242 2327T1135 2221T986 2181ZM986 2334Q1046 2334 1086 2375T1126 2474Q1126 2533 1086 2574T986 2615Q926 2615 886 2574T845 2474Q845 2416 885 2375T986 2334Z" />
<glyph unicode="&#xc6;" horiz-adv-x="2826" d="M70 0L1024 2048H2637V1782H1662V1158H2570V893H1662V266H2649V0H1353V1759H1206L410 0H70ZM518 542V802H1518V542H518Z" />
<glyph unicode="&#xc7;" horiz-adv-x="2071" d="M1926 1382H1614Q1596 1482 1547 1558T1427 1687T1269 1767T1083 1794Q906 1794 767 1705T547 1444T466 1024Q466 774 546 602T767 342T1082 254Q1179 254 1266 280T1425 359T1545 486T1614 660L1926 659Q1901 508
1830 382T1647 164T1392 22T1080 -28Q814 -28 606 98T279 461T159 1024Q159 1352 279 1587T607 1949T1080 2076Q1243 2076 1384 2030T1639 1894T1826 1676T1926 1382ZM975 -3H1171L1155 -85Q1242 -99 1307 -155T1372 -324Q1373 -459 1256 -543T916 -627L910 -460Q1014
-460 1078 -430T1144 -333Q1145 -266 1095 -239T934 -201L975 -3Z" />
<glyph unicode="&#xc8;" horiz-adv-x="1698" d="M225 0V2048H1509V1782H534V1158H1442V893H534V266H1521V0H225ZM750 2253L441 2714H756L989 2253H750Z" />
<glyph unicode="&#xc9;" horiz-adv-x="1698" d="M225 0V2048H1509V1782H534V1158H1442V893H534V266H1521V0H225ZM743 2253L977 2714H1292L982 2253H743Z" />
<glyph unicode="&#xca;" horiz-adv-x="1698" d="M225 0V2048H1509V1782H534V1158H1442V893H534V266H1521V0H225ZM1072 2232L867 2500L661 2232H391V2247L742 2671H991L1343 2247V2232H1072Z" />
<glyph unicode="&#xcb;" horiz-adv-x="1698" d="M225 0V2048H1509V1782H534V1158H1442V893H534V266H1521V0H225ZM573 2289Q502 2289 449 2341T396 2463Q396 2538 449 2588T573 2638Q648 2638 698 2588T749 2463Q749 2394 699 2342T573 2289ZM1161 2289Q1090 2289
1037 2341T984 2463Q984 2538 1037 2588T1161 2638Q1236 2638 1286 2588T1337 2463Q1337 2394 1287 2342T1161 2289Z" />
<glyph unicode="&#xcc;" horiz-adv-x="759" d="M534 2048V0H225V2048H534ZM264 2253L-45 2714H270L503 2253H264Z" />
<glyph unicode="&#xcd;" horiz-adv-x="759" d="M534 2048V0H225V2048H534ZM257 2253L491 2714H806L496 2253H257Z" />
<glyph unicode="&#xce;" horiz-adv-x="759" d="M534 2048V0H225V2048H534ZM585 2232L380 2500L174 2232H-96V2247L255 2671H504L856 2247V2232H585Z" />
<glyph unicode="&#xcf;" horiz-adv-x="759" d="M534 2048V0H225V2048H534ZM86 2289Q16 2289 -37 2341T-90 2463Q-90 2538 -37 2588T86 2638Q161 2638 211 2588T262 2463Q262 2394 212 2342T86 2289ZM674 2289Q604 2289 551 2341T498 2463Q498 2538 551 2588T674
2638Q749 2638 799 2588T850 2463Q850 2394 800 2342T674 2289Z" />
<glyph unicode="&#xd0;" horiz-adv-x="2032" d="M888 0H382V270H871Q1105 270 1260 358T1492 615T1569 1027Q1569 1268 1493 1436T1265 1691T890 1778H371V2048H909Q1210 2048 1426 1926T1757 1575T1873 1027Q1873 707 1757 477T1420 124T888 0ZM534 2048V0H225V2048H534ZM-81
961V1167H838V961H-81Z" />
<glyph unicode="&#xd1;" horiz-adv-x="2103" d="M1878 2048V0H1594L553 1502H534V0H225V2048H511L1553 544H1572V2048H1878ZM751 2234L550 2240Q550 2406 639 2505T861 2604Q922 2604 968 2584T1054 2537T1135 2490T1226 2469Q1284 2469 1320 2513T1357 2622L1554
2609Q1554 2442 1464 2347T1243 2250Q1172 2250 1126 2270T1043 2317T969 2365T878 2386Q822 2386 787 2343T751 2234Z" />
<glyph unicode="&#xd2;" horiz-adv-x="2163" d="M2004 1024Q2004 696 1884 461T1556 99T1082 -28Q816 -28 608 98T279 461T159 1024Q159 1352 279 1587T607 1949T1082 2076Q1347 2076 1555 1950T1884 1588T2004 1024ZM1698 1024Q1698 1274 1618 1445T1398 1705T1082
1794Q905 1794 766 1706T547 1446T466 1024Q466 774 546 603T766 343T1082 254Q1258 254 1397 342T1617 602T1698 1024ZM965 2253L656 2714H971L1204 2253H965Z" />
<glyph unicode="&#xd3;" horiz-adv-x="2163" d="M2004 1024Q2004 696 1884 461T1556 99T1082 -28Q816 -28 608 98T279 461T159 1024Q159 1352 279 1587T607 1949T1082 2076Q1347 2076 1555 1950T1884 1588T2004 1024ZM1698 1024Q1698 1274 1618 1445T1398 1705T1082
1794Q905 1794 766 1706T547 1446T466 1024Q466 774 546 603T766 343T1082 254Q1258 254 1397 342T1617 602T1698 1024ZM958 2253L1192 2714H1507L1197 2253H958Z" />
<glyph unicode="&#xd4;" horiz-adv-x="2163" d="M2004 1024Q2004 696 1884 461T1556 99T1082 -28Q816 -28 608 98T279 461T159 1024Q159 1352 279 1587T607 1949T1082 2076Q1347 2076 1555 1950T1884 1588T2004 1024ZM1698 1024Q1698 1274 1618 1445T1398 1705T1082
1794Q905 1794 766 1706T547 1446T466 1024Q466 774 546 603T766 343T1082 254Q1258 254 1397 342T1617 602T1698 1024ZM1287 2232L1082 2500L876 2232H606V2247L957 2671H1206L1558 2247V2232H1287Z" />
<glyph unicode="&#xd5;" horiz-adv-x="2163" d="M2004 1024Q2004 696 1884 461T1556 99T1082 -28Q816 -28 608 98T279 461T159 1024Q159 1352 279 1587T607 1949T1082 2076Q1347 2076 1555 1950T1884 1588T2004 1024ZM1698 1024Q1698 1274 1618 1445T1398 1705T1082
1794Q905 1794 766 1706T547 1446T466 1024Q466 774 546 603T766 343T1082 254Q1258 254 1397 342T1617 602T1698 1024ZM781 2251L579 2258Q579 2423 669 2522T890 2622Q952 2622 998 2602T1084 2554T1165 2507T1256 2486Q1313 2487 1349 2530T1386 2639L1584 2626Q1583
2459 1494 2364T1273 2268Q1202 2268 1155 2288T1072 2335T998 2382T907 2403Q852 2403 817 2360T781 2251Z" />
<glyph unicode="&#xd6;" horiz-adv-x="2163" d="M2004 1024Q2004 696 1884 461T1556 99T1082 -28Q816 -28 608 98T279 461T159 1024Q159 1352 279 1587T607 1949T1082 2076Q1347 2076 1555 1950T1884 1588T2004 1024ZM1698 1024Q1698 1274 1618 1445T1398 1705T1082
1794Q905 1794 766 1706T547 1446T466 1024Q466 774 546 603T766 343T1082 254Q1258 254 1397 342T1617 602T1698 1024ZM788 2289Q717 2289 664 2341T611 2463Q611 2538 664 2588T788 2638Q863 2638 913 2588T964 2463Q964 2394 914 2342T788 2289ZM1376 2289Q1305
2289 1252 2341T1199 2463Q1199 2538 1252 2588T1376 2638Q1451 2638 1501 2588T1552 2463Q1552 2394 1502 2342T1376 2289Z" />
<glyph unicode="&#xd7;" horiz-adv-x="1875" d="M1418 137L268 1286L457 1476L1607 326L1418 137ZM457 137L268 326L1418 1476L1607 1286L457 137Z" />
<glyph unicode="&#xd8;" horiz-adv-x="2163" d="M442 -89L276 25L1714 2133L1881 2019L442 -89ZM2004 1024Q2004 696 1884 461T1556 99T1082 -28Q816 -28 608 98T279 461T159 1024Q159 1352 279 1587T607 1949T1082 2076Q1347 2076 1555 1950T1884 1588T2004 1024ZM1698
1024Q1698 1274 1618 1445T1398 1705T1082 1794Q905 1794 766 1706T547 1446T466 1024Q466 774 546 603T766 343T1082 254Q1258 254 1397 342T1617 602T1698 1024Z" />
<glyph unicode="&#xd9;" horiz-adv-x="2077" d="M1542 2048H1852V701Q1852 486 1751 321T1467 61T1038 -34Q793 -34 610 60T326 320T225 701V2048H534V726Q534 587 595 479T770 310T1038 248Q1194 248 1307 309T1481 479T1542 726V2048ZM922 2253L613 2714H928L1161
2253H922Z" />
<glyph unicode="&#xda;" horiz-adv-x="2077" d="M1542 2048H1852V701Q1852 486 1751 321T1467 61T1038 -34Q793 -34 610 60T326 320T225 701V2048H534V726Q534 587 595 479T770 310T1038 248Q1194 248 1307 309T1481 479T1542 726V2048ZM915 2253L1149 2714H1464L1154
2253H915Z" />
<glyph unicode="&#xdb;" horiz-adv-x="2077" d="M1542 2048H1852V701Q1852 486 1751 321T1467 61T1038 -34Q793 -34 610 60T326 320T225 701V2048H534V726Q534 587 595 479T770 310T1038 248Q1194 248 1307 309T1481 479T1542 726V2048ZM1244 2232L1039 2500L833
2232H563V2247L914 2671H1163L1515 2247V2232H1244Z" />
<glyph unicode="&#xdc;" horiz-adv-x="2077" d="M1542 2048H1852V701Q1852 486 1751 321T1467 61T1038 -34Q793 -34 610 60T326 320T225 701V2048H534V726Q534 587 595 479T770 310T1038 248Q1194 248 1307 309T1481 479T1542 726V2048ZM745 2289Q674 2289 621
2341T568 2463Q568 2538 621 2588T745 2638Q820 2638 870 2588T921 2463Q921 2394 871 2342T745 2289ZM1333 2289Q1262 2289 1209 2341T1156 2463Q1156 2538 1209 2588T1333 2638Q1408 2638 1458 2588T1509 2463Q1509 2394 1459 2342T1333 2289Z" />
<glyph unicode="&#xdd;" horiz-adv-x="1928" d="M67 2048H418L953 1117H975L1510 2048H1861L1118 804V0H810V804L67 2048ZM841 2253L1075 2714H1390L1080 2253H841Z" />
<glyph unicode="&#xde;" horiz-adv-x="1814" d="M213 2048H522V0H213V2048ZM357 1640H886Q1114 1640 1271 1560T1510 1344T1592 1039Q1592 871 1511 735T1272 519T886 439H357V697H886Q1022 697 1113 738T1250 855T1297 1035Q1297 1139 1251 1217T1113 1338T886
1382H357V1640Z" />
<glyph unicode="&#xdf;" horiz-adv-x="1767" d="M225 0V1518Q225 1691 304 1816T525 2009T854 2076Q1034 2076 1179 2013T1410 1829T1495 1539Q1495 1370 1409 1253T1181 1089V1068Q1377 1051 1499 915T1622 564Q1621 396 1544 269T1329 71T1005 0H766V262H985Q1088
262 1163 302T1279 413T1321 578Q1321 723 1220 816T946 909H774V1169H894Q986 1169 1053 1215T1156 1335T1193 1494Q1193 1628 1105 1719T862 1810Q715 1810 620 1724T524 1498V0H225Z" />
<glyph unicode="&#xe0;" horiz-adv-x="1603" d="M648 -34Q502 -34 384 20T198 179T129 434Q129 564 179 648T314 781T504 855T718 893Q856 909 942 919T1067 954T1106 1032V1039Q1106 1170 1033 1242T814 1314Q663 1314 577 1248T457 1100L176 1164Q226 1304 322
1390T545 1516T810 1556Q902 1556 1005 1535T1199 1456T1348 1294T1406 1020V0H1114V210H1102Q1073 152 1015 96T866 3T648 -34ZM713 206Q837 206 925 255T1060 383T1107 554V752Q1091 736 1046 723T942 700T829 683T737 670Q650 659 579 633T465 559T422 430Q422
319 504 263T713 206ZM965 1741L656 2202H971L1204 1741H965Z" />
<glyph unicode="&#xe1;" horiz-adv-x="1603" d="M648 -34Q502 -34 384 20T198 179T129 434Q129 564 179 648T314 781T504 855T718 893Q856 909 942 919T1067 954T1106 1032V1039Q1106 1170 1033 1242T814 1314Q663 1314 577 1248T457 1100L176 1164Q226 1304 322
1390T545 1516T810 1556Q902 1556 1005 1535T1199 1456T1348 1294T1406 1020V0H1114V210H1102Q1073 152 1015 96T866 3T648 -34ZM713 206Q837 206 925 255T1060 383T1107 554V752Q1091 736 1046 723T942 700T829 683T737 670Q650 659 579 633T465 559T422 430Q422
319 504 263T713 206ZM702 1741L936 2202H1251L941 1741H702Z" />
<glyph unicode="&#xe2;" horiz-adv-x="1603" d="M648 -34Q502 -34 384 20T198 179T129 434Q129 564 179 648T314 781T504 855T718 893Q856 909 942 919T1067 954T1106 1032V1039Q1106 1170 1033 1242T814 1314Q663 1314 577 1248T457 1100L176 1164Q226 1304 322
1390T545 1516T810 1556Q902 1556 1005 1535T1199 1456T1348 1294T1406 1020V0H1114V210H1102Q1073 152 1015 96T866 3T648 -34ZM713 206Q837 206 925 255T1060 383T1107 554V752Q1091 736 1046 723T942 700T829 683T737 670Q650 659 579 633T465 559T422 430Q422
319 504 263T713 206ZM1031 1720L826 1988L620 1720H350V1735L701 2159H950L1302 1735V1720H1031Z" />
<glyph unicode="&#xe3;" horiz-adv-x="1603" d="M648 -34Q502 -34 384 20T198 179T129 434Q129 564 179 648T314 781T504 855T718 893Q856 909 942 919T1067 954T1106 1032V1039Q1106 1170 1033 1242T814 1314Q663 1314 577 1248T457 1100L176 1164Q226 1304 322
1390T545 1516T810 1556Q902 1556 1005 1535T1199 1456T1348 1294T1406 1020V0H1114V210H1102Q1073 152 1015 96T866 3T648 -34ZM713 206Q837 206 925 255T1060 383T1107 554V752Q1091 736 1046 723T942 700T829 683T737 670Q650 659 579 633T465 559T422 430Q422
319 504 263T713 206ZM525 1722L324 1728Q324 1894 413 1993T635 2092Q696 2092 742 2072T828 2025T909 1978T1000 1957Q1058 1957 1094 2001T1131 2110L1328 2097Q1328 1930 1238 1835T1017 1738Q946 1738 900 1758T817 1805T743 1853T652 1874Q596 1874 561 1831T525
1722Z" />
<glyph unicode="&#xe4;" horiz-adv-x="1603" d="M648 -34Q502 -34 384 20T198 179T129 434Q129 564 179 648T314 781T504 855T718 893Q856 909 942 919T1067 954T1106 1032V1039Q1106 1170 1033 1242T814 1314Q663 1314 577 1248T457 1100L176 1164Q226 1304 322
1390T545 1516T810 1556Q902 1556 1005 1535T1199 1456T1348 1294T1406 1020V0H1114V210H1102Q1073 152 1015 96T866 3T648 -34ZM713 206Q837 206 925 255T1060 383T1107 554V752Q1091 736 1046 723T942 700T829 683T737 670Q650 659 579 633T465 559T422 430Q422
319 504 263T713 206ZM532 1777Q461 1777 408 1829T355 1951Q355 2026 408 2076T532 2126Q607 2126 657 2076T708 1951Q708 1882 658 1830T532 1777ZM1120 1777Q1049 1777 996 1829T943 1951Q943 2026 996 2076T1120 2126Q1195 2126 1245 2076T1296 1951Q1296 1882
1246 1830T1120 1777Z" />
<glyph unicode="&#xe5;" horiz-adv-x="1603" d="M648 -34Q502 -34 384 20T198 179T129 434Q129 564 179 648T314 781T504 855T718 893Q856 909 942 919T1067 954T1106 1032V1039Q1106 1170 1033 1242T814 1314Q663 1314 577 1248T457 1100L176 1164Q226 1304 322
1390T545 1516T810 1556Q902 1556 1005 1535T1199 1456T1348 1294T1406 1020V0H1114V210H1102Q1073 152 1015 96T866 3T648 -34ZM713 206Q837 206 925 255T1060 383T1107 554V752Q1091 736 1046 723T942 700T829 683T737 670Q650 659 579 633T465 559T422 430Q422
319 504 263T713 206ZM826 1706Q726 1706 645 1750T517 1871T469 2042Q469 2136 516 2214T645 2340T826 2387Q925 2387 1005 2340T1132 2215T1179 2042Q1179 1947 1132 1871T1005 1751T826 1706ZM826 1866Q904 1867 955 1920T1006 2042Q1006 2112 955 2167T826
2223Q747 2223 697 2168T646 2042Q646 1974 696 1920T826 1866Z" />
<glyph unicode="&#xe6;" horiz-adv-x="2594" d="M1811 -31Q1570 -31 1404 83T1192 390L1217 1200Q1298 1372 1440 1464T1781 1556Q1912 1556 2033 1513T2252 1378T2405 1140T2462 784V678H1250V902H2168Q2168 1020 2120 1111T1986 1256T1783 1309Q1657 1309 1564
1248T1420 1087T1369 874V699Q1369 545 1424 437T1577 273T1805 216Q1891 216 1960 240T2081 314T2159 435L2442 384Q2408 259 2321 166T2104 21T1811 -31ZM713 206Q837 206 925 255T1060 383T1107 554V752Q1091 736 1046 723T942 700T829 683T737 670Q650 659
579 633T465 559T422 430Q422 319 504 263T713 206ZM656 -34Q506 -34 387 20T198 179T129 434Q129 564 179 648T314 781T504 856T718 893Q856 909 942 920T1067 954T1106 1032V1039Q1106 1169 1033 1241T814 1314Q664 1314 577 1248T457 1100L176 1164Q226 1304
322 1390T545 1516T812 1556Q877 1556 952 1544T1101 1500T1235 1406T1327 1246L1249 270H1226Q1193 184 1109 115T907 6T656 -34Z" />
<glyph unicode="&#xe7;" horiz-adv-x="1599" d="M848 -31Q625 -31 465 70T218 351T132 761Q132 995 220 1174T468 1455T845 1556Q1020 1556 1157 1492T1378 1311T1479 1040H1188Q1164 1148 1079 1226T850 1304Q725 1304 632 1239T486 1053T434 768Q434 600 485
478T629 289T850 222Q935 222 1004 253T1121 344T1188 486H1479Q1463 337 1382 220T1166 36T848 -31ZM740 8H936L920 -74Q1007 -88 1072 -144T1137 -313Q1138 -448 1021 -532T681 -616L675 -449Q779 -449 843 -419T909 -322Q910 -255 860 -228T699 -190L740 8Z"
/>
<glyph unicode="&#xe8;" horiz-adv-x="1654" d="M863 -31Q636 -31 473 66T221 341T132 758Q132 994 220 1174T468 1455T842 1556Q972 1556 1094 1513T1313 1378T1466 1140T1522 784V678H301V902H1229Q1229 1020 1181 1111T1047 1256T844 1309Q718 1309 625 1248T481
1088T430 874V699Q430 545 484 437T637 273T866 216Q951 216 1021 240T1142 314T1220 435L1503 384Q1469 259 1382 166T1163 21T863 -31ZM970 1741L661 2202H976L1209 1741H970Z" />
<glyph unicode="&#xe9;" horiz-adv-x="1654" d="M863 -31Q636 -31 473 66T221 341T132 758Q132 994 220 1174T468 1455T842 1556Q972 1556 1094 1513T1313 1378T1466 1140T1522 784V678H301V902H1229Q1229 1020 1181 1111T1047 1256T844 1309Q718 1309 625 1248T481
1088T430 874V699Q430 545 484 437T637 273T866 216Q951 216 1021 240T1142 314T1220 435L1503 384Q1469 259 1382 166T1163 21T863 -31ZM707 1741L941 2202H1256L946 1741H707Z" />
<glyph unicode="&#xea;" horiz-adv-x="1654" d="M863 -31Q636 -31 473 66T221 341T132 758Q132 994 220 1174T468 1455T842 1556Q972 1556 1094 1513T1313 1378T1466 1140T1522 784V678H301V902H1229Q1229 1020 1181 1111T1047 1256T844 1309Q718 1309 625 1248T481
1088T430 874V699Q430 545 484 437T637 273T866 216Q951 216 1021 240T1142 314T1220 435L1503 384Q1469 259 1382 166T1163 21T863 -31ZM1036 1720L831 1988L625 1720H355V1735L706 2159H955L1307 1735V1720H1036Z" />
<glyph unicode="&#xeb;" horiz-adv-x="1654" d="M863 -31Q636 -31 473 66T221 341T132 758Q132 994 220 1174T468 1455T842 1556Q972 1556 1094 1513T1313 1378T1466 1140T1522 784V678H301V902H1229Q1229 1020 1181 1111T1047 1256T844 1309Q718 1309 625 1248T481
1088T430 874V699Q430 545 484 437T637 273T866 216Q951 216 1021 240T1142 314T1220 435L1503 384Q1469 259 1382 166T1163 21T863 -31ZM537 1777Q466 1777 413 1829T360 1951Q360 2026 413 2076T537 2126Q612 2126 662 2076T713 1951Q713 1882 663 1830T537 1777ZM1125
1777Q1054 1777 1001 1829T948 1951Q948 2026 1001 2076T1125 2126Q1200 2126 1250 2076T1301 1951Q1301 1882 1251 1830T1125 1777Z" />
<glyph unicode="&#xec;" horiz-adv-x="701" d="M201 0V1536H500V0H201ZM236 1741L-73 2202H242L475 1741H236Z" />
<glyph unicode="&#xed;" horiz-adv-x="701" d="M201 0V1536H500V0H201ZM229 1741L463 2202H778L468 1741H229Z" />
<glyph unicode="&#xee;" horiz-adv-x="701" d="M201 0V1536H500V0H201ZM557 1720L352 1988L146 1720H-124V1735L227 2159H476L828 1735V1720H557Z" />
<glyph unicode="&#xef;" horiz-adv-x="701" d="M201 0V1536H500V0H201ZM58 1777Q-12 1777 -65 1829T-118 1951Q-118 2026 -65 2076T58 2126Q133 2126 183 2076T234 1951Q234 1882 184 1830T58 1777ZM646 1777Q576 1777 523 1829T470 1951Q470 2026 523 2076T646
2126Q721 2126 771 2076T822 1951Q822 1882 772 1830T646 1777Z" />
<glyph unicode="&#xf0;" horiz-adv-x="1651" d="M1322 1942L462 1518L408 1682L1267 2105L1322 1942ZM823 -32Q613 -32 458 62T217 322T132 704Q132 917 213 1082T433 1340T748 1434Q856 1434 939 1399T1082 1310T1177 1200H1197Q1146 1330 1048 1471T794 1744T421
1983L504 2171Q692 2094 872 1965T1199 1657T1432 1255T1519 764Q1519 515 1433 337T1191 63T823 -32ZM827 218Q960 218 1051 281T1188 453T1235 700Q1235 826 1193 944T1061 1138T827 1214Q692 1214 603 1146T469 964T425 712Q425 580 467 468T598 287T827 218Z"
/>
<glyph unicode="&#xf1;" horiz-adv-x="1682" d="M500 912V0H201V1536H488V1286H507Q560 1408 673 1482T960 1556Q1117 1556 1235 1491T1418 1296T1483 977V0H1184V941Q1184 1108 1097 1202T858 1297Q754 1297 674 1252T547 1121T500 912ZM541 1722L340 1728Q340
1894 429 1993T651 2092Q712 2092 758 2072T844 2025T925 1978T1016 1957Q1074 1957 1110 2001T1147 2110L1344 2097Q1344 1930 1254 1835T1033 1738Q962 1738 916 1758T833 1805T759 1853T668 1874Q612 1874 577 1831T541 1722Z" />
<glyph unicode="&#xf2;" horiz-adv-x="1696" d="M848 -31Q632 -31 471 68T221 345T132 761Q132 1000 221 1179T471 1457T848 1556Q1064 1556 1225 1457T1475 1179T1564 761Q1564 523 1475 345T1225 68T848 -31ZM849 220Q989 220 1081 294T1217 491T1262 762Q1262
909 1218 1032T1081 1231T849 1306Q708 1306 616 1231T479 1033T434 762Q434 614 478 491T615 294T849 220ZM988 1741L679 2202H994L1227 1741H988Z" />
<glyph unicode="&#xf3;" horiz-adv-x="1696" d="M848 -31Q632 -31 471 68T221 345T132 761Q132 1000 221 1179T471 1457T848 1556Q1064 1556 1225 1457T1475 1179T1564 761Q1564 523 1475 345T1225 68T848 -31ZM849 220Q989 220 1081 294T1217 491T1262 762Q1262
909 1218 1032T1081 1231T849 1306Q708 1306 616 1231T479 1033T434 762Q434 614 478 491T615 294T849 220ZM725 1741L959 2202H1274L964 1741H725Z" />
<glyph unicode="&#xf4;" horiz-adv-x="1696" d="M848 -31Q632 -31 471 68T221 345T132 761Q132 1000 221 1179T471 1457T848 1556Q1064 1556 1225 1457T1475 1179T1564 761Q1564 523 1475 345T1225 68T848 -31ZM849 220Q989 220 1081 294T1217 491T1262 762Q1262
909 1218 1032T1081 1231T849 1306Q708 1306 616 1231T479 1033T434 762Q434 614 478 491T615 294T849 220ZM1053 1720L848 1988L642 1720H372V1735L723 2159H972L1324 1735V1720H1053Z" />
<glyph unicode="&#xf5;" horiz-adv-x="1696" d="M848 -31Q632 -31 471 68T221 345T132 761Q132 1000 221 1179T471 1457T848 1556Q1064 1556 1225 1457T1475 1179T1564 761Q1564 523 1475 345T1225 68T848 -31ZM849 220Q989 220 1081 294T1217 491T1262 762Q1262
909 1218 1032T1081 1231T849 1306Q708 1306 616 1231T479 1033T434 762Q434 614 478 491T615 294T849 220ZM547 1722L346 1728Q346 1894 435 1993T657 2092Q718 2092 764 2072T850 2025T931 1978T1022 1957Q1080 1957 1116 2001T1153 2110L1350 2097Q1350 1930
1260 1835T1039 1738Q968 1738 922 1758T839 1805T765 1853T674 1874Q618 1874 583 1831T547 1722Z" />
<glyph unicode="&#xf6;" horiz-adv-x="1696" d="M848 -31Q632 -31 471 68T221 345T132 761Q132 1000 221 1179T471 1457T848 1556Q1064 1556 1225 1457T1475 1179T1564 761Q1564 523 1475 345T1225 68T848 -31ZM849 220Q989 220 1081 294T1217 491T1262 762Q1262
909 1218 1032T1081 1231T849 1306Q708 1306 616 1231T479 1033T434 762Q434 614 478 491T615 294T849 220ZM554 1777Q484 1777 431 1829T378 1951Q378 2026 431 2076T554 2126Q629 2126 679 2076T730 1951Q730 1882 680 1830T554 1777ZM1142 1777Q1072 1777 1019
1829T966 1951Q966 2026 1019 2076T1142 2126Q1217 2126 1267 2076T1318 1951Q1318 1882 1268 1830T1142 1777Z" />
<glyph unicode="&#xf7;" horiz-adv-x="1875" d="M1598 938V675H278V938H1598ZM938 77Q854 77 796 135T737 278Q737 358 795 416T938 474Q1018 474 1076 416T1134 278Q1134 194 1076 136T938 77ZM938 1138Q882 1138 837 1165T764 1238T737 1339Q737 1420 795 1478T938
1536Q1019 1536 1076 1478T1134 1339Q1134 1256 1077 1197T938 1138Z" />
<glyph unicode="&#xf8;" horiz-adv-x="1696" d="M390 -89L223 25L1306 1613L1473 1499L390 -89ZM848 -32Q632 -32 471 67T221 344T132 760Q132 999 221 1178T471 1456T848 1555Q1064 1555 1225 1456T1475 1178T1564 760Q1564 522 1475 344T1225 67T848 -32ZM849
219Q989 219 1081 293T1217 491T1262 761Q1262 908 1218 1032T1081 1231T849 1306Q708 1306 616 1231T479 1032T434 761Q434 614 478 491T615 294T849 219Z" />
<glyph unicode="&#xf9;" horiz-adv-x="1674" d="M1174 637V1536H1474V0H1180V266H1164Q1111 143 995 62T705 -20Q557 -20 444 45T266 240T201 559V1536H500V595Q500 438 587 345T813 252Q897 252 980 294T1119 421T1174 637ZM979 1741L670 2202H985L1218 1741H979Z" />
<glyph unicode="&#xfa;" horiz-adv-x="1674" d="M1174 637V1536H1474V0H1180V266H1164Q1111 143 995 62T705 -20Q557 -20 444 45T266 240T201 559V1536H500V595Q500 438 587 345T813 252Q897 252 980 294T1119 421T1174 637ZM716 1741L950 2202H1265L955 1741H716Z" />
<glyph unicode="&#xfb;" horiz-adv-x="1674" d="M1174 637V1536H1474V0H1180V266H1164Q1111 143 995 62T705 -20Q557 -20 444 45T266 240T201 559V1536H500V595Q500 438 587 345T813 252Q897 252 980 294T1119 421T1174 637ZM1045 1720L840 1988L634 1720H364V1735L715
2159H964L1316 1735V1720H1045Z" />
<glyph unicode="&#xfc;" horiz-adv-x="1674" d="M1174 637V1536H1474V0H1180V266H1164Q1111 143 995 62T705 -20Q557 -20 444 45T266 240T201 559V1536H500V595Q500 438 587 345T813 252Q897 252 980 294T1119 421T1174 637ZM546 1777Q475 1777 422 1829T369 1951Q369
2026 422 2076T546 2126Q621 2126 671 2076T722 1951Q722 1882 672 1830T546 1777ZM1134 1777Q1063 1777 1010 1829T957 1951Q957 2026 1010 2076T1134 2126Q1209 2126 1259 2076T1310 1951Q1310 1882 1260 1830T1134 1777Z" />
<glyph unicode="&#xfd;" horiz-adv-x="1595" d="M390 -576Q323 -576 268 -566T186 -543L258 -298Q340 -320 404 -317T517 -269T605 -122L642 -20L80 1536H400L789 344H805L1194 1536H1515L882 -205Q838 -325 770 -408T608 -534T390 -576ZM673 1741L907 2202H1222L912
1741H673Z" />
<glyph unicode="&#xfe;" horiz-adv-x="1719" d="M201 2048H500V1200L410 773L500 293V-576H201V2048ZM379 1314H519Q545 1359 592 1415T723 1514T941 1556Q1126 1556 1272 1462T1502 1191T1586 765Q1586 516 1503 339T1274 66T943 -30Q812 -30 728 11T595 110T519
214H379V1314ZM1294 768Q1294 922 1249 1042T1112 1232T882 1302Q748 1302 660 1234T527 1045T483 768Q483 610 527 488T660 295T882 225Q1019 225 1110 295T1247 489T1294 768Z" />
<glyph unicode="&#xff;" horiz-adv-x="1595" d="M390 -576Q323 -576 268 -566T186 -543L258 -298Q340 -320 404 -317T517 -269T605 -122L642 -20L80 1536H400L789 344H805L1194 1536H1515L882 -205Q838 -325 770 -408T608 -534T390 -576ZM503 1777Q432 1777 379
1829T326 1951Q326 2026 379 2076T503 2126Q578 2126 628 2076T679 1951Q679 1882 629 1830T503 1777ZM1091 1777Q1020 1777 967 1829T914 1951Q914 2026 967 2076T1091 2126Q1166 2126 1216 2076T1267 1951Q1267 1882 1217 1830T1091 1777Z" />
<glyph unicode="&#x2013;" horiz-adv-x="1408" d="M1408 995V736H0V995H1408Z" />
<glyph unicode="&#x2014;" horiz-adv-x="2816" d="M2816 995V736H0V995H2816Z" />
<glyph unicode="&#x2018;" horiz-adv-x="601" d="M142 1408V1600Q142 1685 174 1779T263 1959T397 2106L545 2000Q484 1911 441 1814T398 1603V1408H142Z" />
<glyph unicode="&#x2019;" horiz-adv-x="561" d="M458 2048V1856Q458 1771 427 1678T338 1498T204 1350L56 1456Q115 1542 158 1639T202 1853V2048H458Z" />
<glyph unicode="&#x201a;" horiz-adv-x="601" d="M455 256V64Q455 -21 424 -114T335 -294T201 -442L53 -336Q112 -250 155 -153T199 61V256H455Z" />
<glyph unicode="&#x201c;" horiz-adv-x="1110" d="M142 1408V1600Q142 1685 174 1779T263 1959T397 2106L545 2000Q484 1911 441 1814T398 1603V1408H142ZM652 1408V1600Q652 1685 684 1779T773 1959T907 2106L1055 2000Q994 1911 951 1814T908 1603V1408H652Z" />
<glyph unicode="&#x201d;" horiz-adv-x="1110" d="M458 2048V1856Q458 1771 427 1678T338 1498T204 1350L56 1456Q115 1542 158 1639T202 1853V2048H458ZM967 2048V1856Q967 1771 936 1678T847 1498T713 1350L565 1456Q624 1542 667 1639T711 1853V2048H967Z" />
<glyph unicode="&#x201e;" horiz-adv-x="1110" d="M456 256V64Q456 -21 425 -114T336 -294T202 -442L54 -336Q113 -250 156 -153T200 61V256H456ZM965 256V64Q965 -21 934 -114T845 -294T711 -442L563 -336Q622 -250 665 -153T709 61V256H965Z" />
<glyph unicode="&#x2022;" horiz-adv-x="1491" d="M746 376Q625 376 525 435T366 595T306 816Q306 938 365 1037T525 1196T746 1256Q868 1256 967 1197T1126 1038T1186 816Q1186 695 1127 595T968 436T746 376Z" />
<glyph unicode="&#x2039;" horiz-adv-x="1040" d="M851 220H584L180 820V840H467L851 220ZM851 1448L467 828H180V848L584 1448H851Z" />
<glyph unicode="&#x203a;" horiz-adv-x="1040" d="M173 220L557 840H844V820L440 220H173ZM173 1448H440L844 848V828H557L173 1448Z" />
</font>
</defs>
</svg>
